DNS SERVER AENDERNum der staatlichen Zensur zu umgehen. Sollten wir von eurem Provider geseprrt werden, nutzt den TOR BROWSER oder ändert euren DNS SERVER.

Filmwünsche können bei uns im Forum abgegeben werden

Wir Speichern Nicht




 
 
 
Top Releases
The.Kings.Ring.2018.DUAL.COM...
Stronger.2017.German.DL.AC3....
Junges.Licht.2016.German.AC3...
Freddy.Eddy.2016.GERMAN.1080...
Freddy.Eddy.2016.GERMAN.720p...
Freddy.Eddy.2016.GERMAN.1080...
Breathe.2017.DUAL.COMPLETE.B...
Roman.J.Israel.Esq.Die.Wahrh...
The.Kings.Ring.Die.letzte.Sc...
The.Kings.Ring.Die.letzte.Sc...

Cinedubs
Skyscraper.2018.German.AC3LD...
Jurassic.World.2.Das.gefalle...
Jurassic.World.2.Das.gefalle...
Jurassic.World.2.Das.gefalle...
Skyscraper.2018.German.AC3LD...
Skyscraper.2018.German.AC3LD...
Die.Biene.Maja.2.Die.Honigsp...
Die.Biene.Maja.2.Die.Honigsp...
Loving.Pablo.2017.German.AC3...
Loving.Pablo.2017.German.AC3...

Neuerscheinungen 2017-18
Ignatius.von.Loyola.2016.GER...
Dont.Move.Serpent.2017.MULTi...
Proud.Mary.2018.MULTi.COMPLE...
Open.the.Door.Nightworld.201...
Birth.of.the.Dragon.2016.MUL...
Birth.of.the.Dragon.2016.Ger...
Birth.of.the.Dragon.2016.Ger...
China.Salesman.2017.German.D...
China.Salesman.2017.German.7...
Global.Storm.Die.finale.Kata...

XXX
SapphicErotica.18.08.27.Andr...
SpyFam.18.08.27.Jasmine.Grey...
TransAngels.18.01.22.Kimberl...
RKPrime.18.07.06.Lela.Star.B...
SisLovesMe.18.07.06.Vienna.R...
PureTaboo.18.07.05.Kenna.Jam...
Spizoo.18.07.05.Jessica.Jaym...
PropertySex.18.07.06.Ashley....
TittyAttack.18.08.27.Kenzie....
Private.18.08.27.Julia.De.Lu...
TheLifeErotic.18.07.06.Raisa...
RKPrime.18.08.27.Victoria.Ju...
PublicAgent.18.07.05.Paulina...
TransAngels.18.01.15.Alisia....
Private.18.07.06.Vanessa.Dec...
TheLisaAnn.18.08.27.Sexy.Wor...
RealWifeStories.18.07.06.Mis...
Throated.18.07.06.India.Summ...
TonightsGirlfriend.18.07.06....
ReadyOrNotHereICum.18.08.27....

3D
Avengers.Infinity.War.3D.201...
Avengers.Infinity.War.3D.201...
Rampage.Big.Meets.Bigger.3D....
Rampage.Big.Meets.Bigger.3D....
Rampage.Big.Meets.Bigger.3D....
Winter.Games.3D.2013.DUAL.CO...
Tomb.Raider.3D.2018.German.7...
Rampage.Big.Meets.Bigger.3D....
Rampage.Big.Meets.Bigger.3D....
Tomb.Raider.3D.2018.MULTi.CO...
Pacific.Rim.Uprising.3D.2018...
Ready.Player.One.3D.2018.Ger...
Rampage.-.Big.Meets.Bigger.2...
Ready.Player.One.2018.3D.HOU...
Ready.Player.One.2018.3D.HSB...

Old_Stuff
Vikings.S02.German.DL.1080p....
Be.Kind.Rewind.Abgedreht.200...
Be.Kind.Rewind.Abgedreht.200...
Dracula.The.Dark.Lord.2012.G...
21.2008.German.DL.1080p.BluR...
Achtung.fertig.WK.Swissgerma...
The.Ouija.Exorcism.2015.MULT...
Meine.liebe.Rabenmutter.germ...
Da.Vincis.Demons.S01.Complet...
Eragon.Das.Vermaechtnis.der....
Adele.und.das.Geheimnis.des....
Die.fabelhafte.Welt.der.Amel...
Haus.des.Geldes.S01.German.M...
How.I.Met.Your.Mother.S01.Ge...
The.Dark.Knight.Rises.2012.M...

Filme
Stichtag.Schluss.mit.gemuetl...
Atypical.S02.German.DL.1080p...
Atypical.S02.German.DL.720p....
Atypical.S01.COMPLETE.German...
Atypical.S01.COMPLETE.German...
Marvels.Iron.Fist.S02.German...
Marvels.Iron.Fist.S02.German...
Coldwater.Nur.das.Ueberleben...
Tom.Clancys.Jack.Ryan.S01.CO...
Half.Nelson.2006.German.DL.1...
Cold.War.2012.German.1080p.B...
The.Last.Boy.Scout.1991.Germ...
Forrest.Gump.4K.REMASTERED.1...
Housefull.Das.Spiel.mit.der....
Elvira.Herrscherin.Der.Dunke...
Mr.Mercedes.S02.German.DD+51...
Mr.Mercedes.S02.German.DD+51...
The.Handmaids.Tale.S02.Germa...
The.Handmaids.Tale.S02.Germa...
Manta.Manta.1991.German.DD51...
Manta.der.Film.1991.German.D...
Die.Stunde.der.Patrioten.199...
El.Topo.1970.German.AC3D.DL....
Eine.Reihe.betrueblicher.Ere...

 
 
Skyscraper.2018.German.AC3LD.DL.1080p.WEB-DL.x265-FuN

Jahr: 2018
Genre: Action
Sprache: Deutsch AC3 | Englisch AC3
Laufzeit: 1h 42mn
Bitrate: 3 133 Kbps
Format: MKV
Größe: 2.24 GiB
Release:

Beschreibung:

Eine neue berufliche Herausforderung in Hongkong wird zum Albtraum für den Kriegsveteranen und ehemaligen FBI-Einsatzchef Will Sawyer (Dwayne Johnson), der im The Pearl, dem mit 240 Stockwerken höchsten Wolkenkratzer der Welt, für Sicherheit sorgen soll. Kaum hat Will sein Amt angetreten, kommt es zur Katastrophe: Die 96. Etage steht plötzlich in Flammen. In den Stockwerken darüber ist seine Familie eingeschlossen, ohne eine realistische Chance auf Rettung. Zu seinem Entsetzen wird er auch noch beschuldigt, die Feuersbrunst selbst entfacht zu haben! Verzweifelt versucht Sawyer, die Brandstifter zu finden, seine Familie aus dem flammenden Inferno zu retten und seine Unschuld zu beweisen.

 

Audio German: AC-3 224 kb/s @ 2 channels
Notes: iTunes Bild ohne ASiA Subs..
x265



Format                                   : Matroska
Format version                           : Version 4 / Version 2
File size                                : 2.24 GiB
Duration                                 : 1h 42mn
Overall bit rate                         : 3 133 Kbps
Movie name                               : EVO
Encoded date                             : UTC 2018-09-06 11:53:38
Writing application                      : HandBrake 20180822104100-b703c42-master 2018082301
Writing library                          : Lavf58.12.100

Video
ID                                       : 1
Format                                   : HEVC
Format/Info                              : High Efficiency Video Coding
Format profile                           : Main@L4.0
Codec ID                                 : V_MPEGH/ISO/HEVC
Duration                                 : 1h 42mn
Bit rate                                 : 2 655 Kbps
Width                                    : 1 916 pixels
Height                                   : 796 pixels
Display aspect ratio                     : 2.40:1
Frame rate mode                          : Constant
Frame rate                               : 23.976 fps
Color space                              : YUV
Chroma subsampling                       : 4:2:0
Bit depth                                : 8 bits
Bits/(Pixel*Frame)                       : 0.073
Stream size                              : 1.90 GiB (85%)
Writing library                          : x265 2.8:[Windows][GCC 7.1.0][64 bit] 8bit+10bit+12bit
Encoding settings                        : cpuid=1111039 / frame-threads=3 / numa-pools=8 / wpp / no-pmode / no-pme / no-psnr / no-ssim / log-level=2 / input-csp=1 / input-res=1916x796 / interlace=0 / total-frames=0 / level-idc=0 / high-tier=1 / uhd-bd=0 / ref=3 / no-allow-non-conformance / no-repeat-headers / annexb / no-aud / no-hrd / info / hash=0 / no-temporal-layers / open-gop / min-keyint=24 / keyint=240 / gop-lookahead=0 / bframes=4 / b-adapt=2 / b-pyramid / bframe-bias=0 / rc-lookahead=20 / lookahead-slices=5 / scenecut=40 / radl=0 / no-intra-refresh / ctu=64 / min-cu-size=8 / no-rect / no-amp / max-tu-size=32 / tu-inter-depth=1 / tu-intra-depth=1 / limit-tu=0 / rdoq-level=0 / dynamic-rd=0.00 / no-ssim-rd / signhide / no-tskip / nr-intra=0 / nr-inter=0 / no-constrained-intra / no-strong-intra-smoothing / max-merge=2 / limit-refs=3 / no-limit-modes / me=1 / subme=2 / merange=57 / temporal-mvp / weightp / no-weightb / no-analyze-src-pics / deblock=0:0 / no-sao / no-sao-non-deblock / rd=3 / no-early-skip / rskip / no-fast-intra / no-tskip-fast / no-cu-lossless / no-b-intra / no-splitrd-skip / rdpenalty=0 / psy-rd=2.00 / psy-rdoq=0.00 / no-rd-refine / no-lossless / cbqpoffs=0 / crqpoffs=0 / rc=crf / crf=20.0 / qcomp=0.60 / qpstep=4 / stats-write=0 / stats-read=0 / ipratio=1.40 / pbratio=1.30 / aq-mode=1 / aq-strength=1.00 / cutree / zone-count=0 / no-strict-cbr / qg-size=32 / no-rc-grain / qpmax=69 / qpmin=0 / no-const-vbv / sar=1 / overscan=0 / videoformat=5 / range=0 / colorprim=1 / transfer=1 / colormatrix=1 / chromaloc=0 / display-window=0 / max-cll=0,0 / min-luma=0 / max-luma=255 / log2-max-poc-lsb=8 / vui-timing-info / vui-hrd-info / slices=1 / no-opt-qp-pps / no-opt-ref-list-length-pps / no-multi-pass-opt-rps / scenecut-bias=0.05 / no-opt-cu-delta-qp / no-aq-motion / no-hdr / no-hdr-opt / no-dhdr10-opt / no-idr-recovery-sei / analysis-reuse-level=5 / scale-factor=0 / refine-intra=0 / refine-inter=0 / refine-mv=0 / no-limit-sao / ctu-info=0 / no-lowpass-dct / refine-mv-type=0 / copy-pic=1 / max-ausize-factor=1.0 / no-dynamic-refine / no-single-sei
Default                                  : Yes
Forced                                   : No
DURATION                                 : 01:42:24.477000000

Audio #1
ID                                       : 2
Format                                   : AC-3
Format/Info                              : Audio Coding 3
Mode extension                           : CM (complete main)
Format settings, Endianness              : Big
Codec ID                                 : A_AC3
Duration                                 : 1h 42mn
Bit rate mode                            : Constant
Bit rate                                 : 224 Kbps
Channel(s)                               : 2 channels
Channel positions                        : Front: L R
Sampling rate                            : 48.0 KHz
Bit depth                                : 16 bits
Compression mode                         : Lossy
Delay relative to video                  : 11ms
Stream size                              : 164 MiB (7%)
Title                                    : Stereo
Language                                 : German
Default                                  : Yes
Forced                                   : No
DURATION                                 : 01:42:23.952000000

Audio #2
ID                                       : 3
Format                                   : AC-3
Format/Info                              : Audio Coding 3
Mode extension                           : CM (complete main)
Format settings, Endianness              : Big
Codec ID                                 : A_AC3
Duration                                 : 1h 42mn
Bit rate mode                            : Constant
Bit rate                                 : 192 Kbps
Channel(s)                               : 2 channels
Channel positions                        : Front: L R
Sampling rate                            : 48.0 KHz
Bit depth                                : 16 bits
Compression mode                         : Lossy
Delay relative to video                  : -5ms
Stream size                              : 141 MiB (6%)
Title                                    : Stereo
Language                                 : English
Default                                  : No
Forced                                   : No
DURATION                                 : 01:42:24.064000000



Download:
Share Online Share OnlineShare OnlineShare Online
 

Kommentare