DNS SERVER AENDERNum der staatlichen Zensur zu umgehen. Sollten wir von eurem Provider geseprrt werden, nutzt den TOR BROWSER oder ändert euren DNS SERVER.

Filmwünsche können bei uns im Forum abgegeben werden

Wir Speichern Nicht




 
 
 
Top Releases
Ungehorsam.2017.German.AC3.D...
Solange.ich.atme.2017.German...
Roman.J.Israel.Esq.Die.Wahrh...
Early.Man.Steinzeit.bereit.2...
Early.Man.Steinzeit.Bereit.2...
A.Beautiful.Day.2017.German....
Early.Man.Steinzeit.bereit.2...
Early.Man.Steinzeit.bereit.2...
A.Breath.Away.2018.German.AC...
Die.UFO-Verschwoerung.2018.G...

Cinedubs
Jurassic.World.2.Das.gefalle...
Ant-Man.and.the.Wasp.TS.LD.G...
I.Feel.Pretty.2018.German.AC...
I.Feel.Pretty.2018.German.AC...
Skyscraper.2018.German.AC3LD...
Jurassic.World.2.Das.gefalle...
Jurassic.World.2.Das.gefalle...
Jurassic.World.2.Das.gefalle...
Skyscraper.2018.German.AC3LD...
Skyscraper.2018.German.AC3LD...

Neuerscheinungen 2017-18
Stoned.-.Volle.Droehnung.vor...
Stoned.-.Volle.Droehnung.vor...
Brueder.Teil.1.2017.German.7...
Brueder.Teil.2.2017.German.7...
Invasion.U.S.A.1985.MULTi.CO...
Die.Strategie.der.Spinne.Str...
Brueder.Teil.2.2017.German.1...
Brueder.Teil.1.2017.German.1...
Bayern.sagenhaft.2017.GERMAN...
Global.Storm.Die.finale.Kata...

XXX
UpHerAsshole.18.07.05.Anny.A...
VIPArea.18.01.11.Elle.Alexan...
VIPArea.17.12.23.Abby.Cross....
TeensLoveBlackCocks.18.08.27...
TransAngels.18.03.19.Bianka....
SweetSinner.18.07.05.Kenna.J...
VIPArea.17.02.28.Emily.Addis...
VIPArea.18.01.02.Capri.Ander...
TMWVRNet.18.07.06.Roxy.Lips....
TabooPOV.18.07.05.Sarah.Vand...
VIPArea.18.03.15.Hayden.Hawk...
TransAngels.18.03.05.Foxxy.M...
TeensLoveHugeCocks.18.07.06....
VIPArea.18.01.29.Emily.Addis...
UltimateSurrender.18.07.04.C...
TeachMeFisting.18.08.27.Anto...
TheFuckingClinic.18.07.06.La...
TransAngels.18.03.12.Chanel....
Swallowed.18.07.06.Bobbi.Dyl...
VIPArea.18.02.02.Gracie.Glam...

3D
Avengers.Infinity.War.3D.201...
Avengers.Infinity.War.3D.201...
Rampage.Big.Meets.Bigger.3D....
Rampage.Big.Meets.Bigger.3D....
Rampage.Big.Meets.Bigger.3D....
Winter.Games.3D.2013.DUAL.CO...
Tomb.Raider.3D.2018.German.7...
Rampage.Big.Meets.Bigger.3D....
Rampage.Big.Meets.Bigger.3D....
Tomb.Raider.3D.2018.MULTi.CO...
Pacific.Rim.Uprising.3D.2018...
Ready.Player.One.3D.2018.Ger...
Rampage.-.Big.Meets.Bigger.2...
Ready.Player.One.2018.3D.HOU...
Ready.Player.One.2018.3D.HSB...

Old_Stuff
Den.Himmel.gibts.echt.DL.108...
Vikings.S02.German.DL.1080p....
Be.Kind.Rewind.Abgedreht.200...
Be.Kind.Rewind.Abgedreht.200...
Dracula.The.Dark.Lord.2012.G...
21.2008.German.DL.1080p.BluR...
Achtung.fertig.WK.Swissgerma...
The.Ouija.Exorcism.2015.MULT...
Meine.liebe.Rabenmutter.germ...
Da.Vincis.Demons.S01.Complet...
Eragon.Das.Vermaechtnis.der....
Adele.und.das.Geheimnis.des....
Die.fabelhafte.Welt.der.Amel...
Haus.des.Geldes.S01.German.M...
How.I.Met.Your.Mother.S01.Ge...

Filme
Weltengaenger.2018.GERMAN.AC...
Courageous.Ein.mutiger.Weg.2...
Bad.Boys.1995.German.DL.2160...
Robin.Hood.Koenig.der.Diebe....
Elvira.Herrscherin.Der.Dunke...
Texas.Chainsaw.Massacre.Die....
Texas.Chainsaw.Massacre.Die....
French.Women.-.Was.Frauen.wi...
French.Women.-.Was.Frauen.wi...
Tsotsi.2005.German.720p.BluR...
Tsotsi.2005.German.DL.1080p....
Bitter.Moon.1992.German.1080...
Die.Regeln.des.Spiels.2002.G...
MotoGP.Moto2.Moto3.Saison.20...
MotoGP.Moto2.Moto3.Saison.20...
Meuterei.auf.der.Teufelsinse...
Meuterei.auf.der.Teufelsinse...
Rache.aus.dem.Jenseits.1976....
Stan.Lees.Lucky.Man.S03.GERM...
Stan.Lees.Lucky.Man.S03.GERM...
Marvels.Agents.of.S.H.I.E.L....
Marvels.Agents.of.S.H.I.E.L....
Modern.Family.S08.GERMAN.DUB...
Modern.Family.S08.GERMAN.DUB...

 
 
Ungehorsam.2017.German.AC3.DL.1080p.BluRay.x265-FuN

Jahr: 2017
Genre: Drama
Sprache: Deutsch AC3 | Englisch AC3
Laufzeit: 1h 53mn
Bitrate: 2 149 Kbps
Format: MKV
Größe: 1.71 GiB
Release:

Beschreibung:

Oscar-Preisträgerin Rachel Weisz (Beste Nebendarstellerin, Der ewige Gärtner, 2005; Verleugnung) und Rachel McAdams (Spotlight) spielen die Hauptrollen in diesem faszinierenden Drama über eine Frau, die zu den Menschen zurückkehrt, die sie Jahrzehnte vorher für ihre Liebe zu einer Jugendfreundin ausgegrenzt haben. Als sie sich wiedersehen, flammt ihre Leidenschaft füreinander wieder auf und zusammen erkunden sie die Grenzen von Glauben und Sexualität. Filmkritiker nennen diesen Film "romantisch und fesselnd" (Parade).



Complete name                            : Ungehorsam.x265.mkv
Format                                   : Matroska
Format version                           : Version 4 / Version 2
File size                                : 1.71 GiB
Duration                                 : 1h 53mn
Overall bit rate                         : 2 149 Kbps
Encoded date                             : UTC 2018-09-07 12:40:14
Writing application                      : mkvmerge v10.0.0 ('To Drown In You') 64bit
Writing library                          : libebml v1.3.4 + libmatroska v1.4.5
DURATION                                 : 01:53:07.603000000
NUMBER_OF_FRAMES                         : 848
NUMBER_OF_BYTES                          : 2346166
_STATISTICS_WRITING_APP                  : mkvmerge v10.0.0 ('To Drown In You') 64bit
_STATISTICS_WRITING_DATE_UTC             : 2018-09-07 12:40:14
_STATISTICS_TAGS                         : BPS DURATION NUMBER_OF_FRAMES NUMBER_OF_BYTES

Video
ID                                       : 1
Format                                   : HEVC
Format/Info                              : High Efficiency Video Coding
Format profile                           : Main@L4.0
Codec ID                                 : V_MPEGH/ISO/HEVC
Duration                                 : 1h 53mn
Bit rate                                 : 1 338 Kbps
Width                                    : 1 920 pixels
Height                                   : 804 pixels
Display aspect ratio                     : 2.40:1
Frame rate mode                          : Constant
Frame rate                               : 23.976 fps
Color space                              : YUV
Chroma subsampling                       : 4:2:0
Bit depth                                : 8 bits
Bits/(Pixel*Frame)                       : 0.036
Stream size                              : 1.06 GiB (62%)
Writing library                          : x265 2.8:[Windows][GCC 7.1.0][64 bit] 8bit+10bit+12bit
Encoding settings                        : cpuid=1111039 / frame-threads=3 / numa-pools=8 / wpp / no-pmode / no-pme / no-psnr / no-ssim / log-level=2 / input-csp=1 / input-res=1920x804 / interlace=0 / total-frames=0 / level-idc=0 / high-tier=1 / uhd-bd=0 / ref=3 / no-allow-non-conformance / no-repeat-headers / annexb / no-aud / no-hrd / info / hash=0 / no-temporal-layers / open-gop / min-keyint=24 / keyint=240 / gop-lookahead=0 / bframes=4 / b-adapt=2 / b-pyramid / bframe-bias=0 / rc-lookahead=20 / lookahead-slices=5 / scenecut=40 / radl=0 / no-intra-refresh / ctu=64 / min-cu-size=8 / no-rect / no-amp / max-tu-size=32 / tu-inter-depth=1 / tu-intra-depth=1 / limit-tu=0 / rdoq-level=0 / dynamic-rd=0.00 / no-ssim-rd / signhide / no-tskip / nr-intra=0 / nr-inter=0 / no-constrained-intra / no-strong-intra-smoothing / max-merge=2 / limit-refs=3 / no-limit-modes / me=1 / subme=2 / merange=57 / temporal-mvp / weightp / no-weightb / no-analyze-src-pics / deblock=0:0 / no-sao / no-sao-non-deblock / rd=3 / no-early-skip / rskip / no-fast-intra / no-tskip-fast / no-cu-lossless / no-b-intra / no-splitrd-skip / rdpenalty=0 / psy-rd=2.00 / psy-rdoq=0.00 / no-rd-refine / no-lossless / cbqpoffs=0 / crqpoffs=0 / rc=crf / crf=20.0 / qcomp=0.60 / qpstep=4 / stats-write=0 / stats-read=0 / ipratio=1.40 / pbratio=1.30 / aq-mode=1 / aq-strength=1.00 / cutree / zone-count=0 / no-strict-cbr / qg-size=32 / no-rc-grain / qpmax=69 / qpmin=0 / no-const-vbv / sar=1 / overscan=0 / videoformat=5 / range=0 / colorprim=1 / transfer=1 / colormatrix=1 / chromaloc=0 / display-window=0 / max-cll=0,0 / min-luma=0 / max-luma=255 / log2-max-poc-lsb=8 / vui-timing-info / vui-hrd-info / slices=1 / no-opt-qp-pps / no-opt-ref-list-length-pps / no-multi-pass-opt-rps / scenecut-bias=0.05 / no-opt-cu-delta-qp / no-aq-motion / no-hdr / no-hdr-opt / no-dhdr10-opt / no-idr-recovery-sei / analysis-reuse-level=5 / scale-factor=0 / refine-intra=0 / refine-inter=0 / refine-mv=0 / no-limit-sao / ctu-info=0 / no-lowpass-dct / refine-mv-type=0 / copy-pic=1 / max-ausize-factor=1.0 / no-dynamic-refine / no-single-sei
Default                                  : Yes
Forced                                   : No
DURATION                                 : 01:53:54.995000000
NUMBER_OF_FRAMES                         : 163876
NUMBER_OF_BYTES                          : 1173184612
_STATISTICS_WRITING_APP                  : mkvmerge v10.0.0 ('To Drown In You') 64bit
_STATISTICS_WRITING_DATE_UTC             : 2018-09-07 12:40:14
_STATISTICS_TAGS                         : BPS DURATION NUMBER_OF_FRAMES NUMBER_OF_BYTES

Audio #1
ID                                       : 2
Format                                   : AC-3
Format/Info                              : Audio Coding 3
Mode extension                           : CM (complete main)
Format settings, Endianness              : Big
Codec ID                                 : A_AC3
Duration                                 : 1h 53mn
Bit rate mode                            : Constant
Bit rate                                 : 384 Kbps
Channel(s)                               : 6 channels
Channel positions                        : Front: L C R, Side: L R, LFE
Sampling rate                            : 48.0 KHz
Bit depth                                : 16 bits
Compression mode                         : Lossy
Delay relative to video                  : -5ms
Stream size                              : 313 MiB (18%)
Title                                    : Surround
Language                                 : German
Default                                  : Yes
Forced                                   : No
DURATION                                 : 01:53:54.976000000
NUMBER_OF_FRAMES                         : 213593
NUMBER_OF_BYTES                          : 328078848
_STATISTICS_WRITING_APP                  : mkvmerge v10.0.0 ('To Drown In You') 64bit
_STATISTICS_WRITING_DATE_UTC             : 2018-09-07 12:40:14
_STATISTICS_TAGS                         : BPS DURATION NUMBER_OF_FRAMES NUMBER_OF_BYTES

Audio #2
ID                                       : 3
Format                                   : AC-3
Format/Info                              : Audio Coding 3
Mode extension                           : CM (complete main)
Format settings, Endianness              : Big
Codec ID                                 : A_AC3
Duration                                 : 1h 53mn
Bit rate mode                            : Constant
Bit rate                                 : 384 Kbps
Channel(s)                               : 6 channels
Channel positions                        : Front: L C R, Side: L R, LFE
Sampling rate                            : 48.0 KHz
Bit depth                                : 16 bits
Compression mode                         : Lossy
Delay relative to video                  : -5ms
Stream size                              : 313 MiB (18%)
Title                                    : Surround
Language                                 : English
Default                                  : No
Forced                                   : No
DURATION                                 : 01:53:54.976000000
NUMBER_OF_FRAMES                         : 213593
NUMBER_OF_BYTES                          : 328078848
_STATISTICS_WRITING_APP                  : mkvmerge v10.0.0 ('To Drown In You') 64bit
_STATISTICS_WRITING_DATE_UTC             : 2018-09-07 12:40:14
_STATISTICS_TAGS                         : BPS DURATION NUMBER_OF_FRAMES NUMBER_OF_BYTES

Text #1
ID                                       : 4
Format                                   : VobSub
Muxing mode                              : zlib
Codec ID                                 : S_VOBSUB
Codec ID/Info                            : The same subtitle format used on DVDs
Title                                    : German
Language                                 : German
Default                                  : No
Forced                                   : No

Text #2
ID                                       : 5
Format                                   : VobSub
Muxing mode                              : zlib
Codec ID                                 : S_VOBSUB
Codec ID/Info                            : The same subtitle format used on DVDs
Title                                    : Englisch
Language                                 : English
Default                                  : No
Forced                                   : No


Download:
Share Online Share OnlineShare OnlineShare Online
 

Kommentare