DNS SERVER AENDERNum der staatlichen Zensur zu umgehen. Sollten wir von eurem Provider geseprrt werden, nutzt den TOR BROWSER oder ändert euren DNS SERVER.

Filmwünsche können bei uns im Forum abgegeben werden

Wir Speichern Nicht




 
 
 
Top Releases
Virunga.2014.German.DL.Doku....
Virunga.2014.German.DL.Doku....
Ungehorsam.2017.German.AC3.D...
Solange.ich.atme.2017.German...
Roman.J.Israel.Esq.Die.Wahrh...
Early.Man.Steinzeit.bereit.2...
Early.Man.Steinzeit.Bereit.2...
A.Beautiful.Day.2017.German....
Early.Man.Steinzeit.bereit.2...
Early.Man.Steinzeit.bereit.2...

Cinedubs
Solo.A.Star.Wars.Story.2018....
Loving.Pablo.2017.German.AC3...
Jurassic.World.2.Das.gefalle...
Ant-Man.and.the.Wasp.TS.LD.G...
I.Feel.Pretty.2018.German.AC...
I.Feel.Pretty.2018.German.AC...
Skyscraper.2018.German.AC3LD...
Jurassic.World.2.Das.gefalle...
Jurassic.World.2.Das.gefalle...
Jurassic.World.2.Das.gefalle...

Neuerscheinungen 2017-18
Heilstaetten.2018.German.AC3...
Heilstaetten.2018.German.AC3...
Early.Man.Steinzeit.bereit.2...
You.Get.Me.2017.German.DL.72...
You.Get.Me.2017.German.DL.10...
Alien.Siege.Angriffsziel.Erd...
Alien.Siege.Angriffsziel.Erd...
Vielmachglas.German.AC3.720p...
Vielmachglas.German.AC3.1080...
Alien.Siege.2018.COMPLETE.BL...

XXX
WickedPictures.Love.Junkies....
AllGirlMassage.18.09.03.Soph...
WildOnCam.18.08.27.Eliza.Iba...
WickedPictures.Love.Junkies....
WankItNow.18.08.10.Amber.Jay...
WankItNow.18.08.08.Ashley.Ja...
WankItNow.18.08.10.Jasmine.L...
WickedPictures.Axel.Brauns.B...
AbbyWinters.18.09.04.Daniela...
Yanks.18.08.26.Amber.Chase.A...
WhippedAss.18.07.05.Bella.Ro...
WildOnCam.18.07.06.Elsa.Jean...
WankItNow.18.08.08.Roxy.R.Do...
Yonitale.18.07.06.Nedda.Y.Do...
Watch4Beauty.18.07.05.Ariela...
WildOnCam.18.07.05.Jay.Taylo...
WebYoung.18.07.06.Lyra.Law.A...
Vixen.18.08.27.Athena.Palomi...
ATKHairy.18.09.03.Andy.Moon....
WankItNow.18.08.09.Beth.Wank...

3D
Avengers.Infinity.War.3D.201...
Avengers.Infinity.War.3D.201...
Rampage.Big.Meets.Bigger.3D....
Rampage.Big.Meets.Bigger.3D....
Rampage.Big.Meets.Bigger.3D....
Winter.Games.3D.2013.DUAL.CO...
Tomb.Raider.3D.2018.German.7...
Rampage.Big.Meets.Bigger.3D....
Rampage.Big.Meets.Bigger.3D....
Tomb.Raider.3D.2018.MULTi.CO...
Pacific.Rim.Uprising.3D.2018...
Ready.Player.One.3D.2018.Ger...
Rampage.-.Big.Meets.Bigger.2...
Ready.Player.One.2018.3D.HOU...
Ready.Player.One.2018.3D.HSB...

Old_Stuff
Den.Himmel.gibts.echt.DL.108...
Vikings.S02.German.DL.1080p....
Be.Kind.Rewind.Abgedreht.200...
Be.Kind.Rewind.Abgedreht.200...
Dracula.The.Dark.Lord.2012.G...
21.2008.German.DL.1080p.BluR...
Achtung.fertig.WK.Swissgerma...
The.Ouija.Exorcism.2015.MULT...
Meine.liebe.Rabenmutter.germ...
Da.Vincis.Demons.S01.Complet...
Eragon.Das.Vermaechtnis.der....
Adele.und.das.Geheimnis.des....
Die.fabelhafte.Welt.der.Amel...
Haus.des.Geldes.S01.German.M...
How.I.Met.Your.Mother.S01.Ge...

Filme
Paris.Die.goldenen.20er.GERM...
52.Pick.Up.1986.German.AC3D....
Macbeth.1971.German.AC3D.DL....
Men.at.Work.German.1990.Germ...
El.Ardor.Der.Krieger.aus.dem...
Palmyra.Aus.Asche.auferstand...
The.Game.of.Love.1995.German...
Madhouse.-.Party.des.Schreck...
Die.Rettung.der.Meisterwerke...
Die.Monuments.Men.von.Timbuk...
Missions.S01.COMPLETE.German...
White.Gold.S01.COMPLETE.Germ...
White.Gold.S01.COMPLETE.Germ...
Salvation.S01.German.DL.Dubb...
Salvation.S01.German.DL.Dubb...
Modern.Family.S08.GERMAN.DUB...
Modern.Family.S08.GERMAN.DUB...
Rapid.Fire.UNCUT.1992.German...
Bad.Boys.1995.German.DL.2160...
Draft.Day.2014.German.AC3.DL...
Early.Man.Steinzeit.bereit.2...
Der.Eiffelturm.Eine.wahre.Ge...
Mr.Nice.Guy.1997.German.1080...
Jean-Claude.Van.Johnson.S01....

 
 
Heilstaetten.2018.German.AC3.720p.WebHD.h264-HP​

Jahr: 2018
Genre: Horror
Sprache: Deutsch AC3
Laufzeit: 1h 28mn
Bitrate: 4 447 Kbps
Format: MKV
Größe: 2.76 GiB
Release:

Beschreibung:

In den Heilstätten in der Nähe von Berlin sollen früher schreckliche Experimente an Menschen gemacht worden sein. Angeblich soll es deswegen in dem Gemäuer spuken. Eine Gruppe junger YouTuber will den Gerüchten ausgerüstet mit Nachtsicht- und Wärmekameras nachgehen. Die Challenge entwickelt sich tatsächlich zu einer großen Herausforderung, als sie nicht nur Visionen von ehemaligen Patienten haben, sondern tatsächlich vom Bösen angegriffen werden. Der Spaß wird zum blanken Horror.



Complete name                            : hp-heilstaetten-720web.mkv
Format                                   : Matroska
Format version                           : Version 4 / Version 2
File size                                : 2.76 GiB
Duration                                 : 1h 28mn
Overall bit rate                         : 4 447 Kbps
Encoded date                             : UTC 2018-09-09 23:26:57
Writing application                      : mkvmerge v26.0.0 ('In The Game') 64-bit
Writing library                          : libebml v1.3.6 + libmatroska v1.4.9
DURATION                                 : 01:28:59.680000000
NUMBER_OF_FRAMES                         : 166865
NUMBER_OF_BYTES                          : 256304640
_STATISTICS_WRITING_APP                  : mkvmerge v26.0.0 ('In The Game') 64-bit
_STATISTICS_WRITING_DATE_UTC             : 2018-09-09 23:26:57
_STATISTICS_TAGS                         : BPS DURATION NUMBER_OF_FRAMES NUMBER_OF_BYTES

Video
ID                                       : 1
Format                                   : AVC
Format/Info                              : Advanced Video Codec
Format profile                           : Main@L3.1
Format settings, CABAC                   : No
Format settings, ReFrames                : 2 frames
Codec ID                                 : V_MPEG4/ISO/AVC
Duration                                 : 1h 28mn
Bit rate                                 : 3 974 Kbps
Width                                    : 1 280 pixels
Height                                   : 536 pixels
Display aspect ratio                     : 2.40:1
Frame rate mode                          : Constant
Frame rate                               : 23.976 fps
Color space                              : YUV
Chroma subsampling                       : 4:2:0
Bit depth                                : 8 bits
Scan type                                : Progressive
Bits/(Pixel*Frame)                       : 0.242
Stream size                              : 2.47 GiB (89%)
Default                                  : Yes
Forced                                   : No
Color primaries                          : BT.709
Transfer characteristics                 : BT.709
Matrix coefficients                      : BT.709

Audio
ID                                       : 2
Format                                   : AC-3
Format/Info                              : Audio Coding 3
Mode extension                           : CM (complete main)
Format settings, Endianness              : Big
Codec ID                                 : A_AC3
Duration                                 : 1h 28mn
Bit rate mode                            : Constant
Bit rate                                 : 384 Kbps
Channel(s)                               : 6 channels
Channel positions                        : Front: L C R, Side: L R, LFE
Sampling rate                            : 48.0 KHz
Bit depth                                : 16 bits
Compression mode                         : Lossy
Stream size                              : 244 MiB (9%)
Language                                 : German
Default                                  : Yes
Forced                                   : No


Download:
Share Online Share OnlineShare OnlineShare Online
 

Kommentare