DNS SERVER AENDERNum der staatlichen Zensur zu umgehen. Sollten wir von eurem Provider geseprrt werden, nutzt den TOR BROWSER oder ändert euren DNS SERVER.

Filmwünsche können bei uns im Forum abgegeben werden

Wir Speichern Nicht




 
 
 
Top Releases
Arthur.und.Claire.2017.Germa...
Arthur.und.Claire.2017.Germa...
Virunga.2014.German.DL.Doku....
Virunga.2014.German.DL.Doku....
Ungehorsam.2017.German.AC3.D...
Solange.ich.atme.2017.German...
Roman.J.Israel.Esq.Die.Wahrh...
Early.Man.Steinzeit.bereit.2...
Early.Man.Steinzeit.Bereit.2...
A.Beautiful.Day.2017.German....

Cinedubs
Solo.A.Star.Wars.Story.2018....
Loving.Pablo.2017.German.AC3...
Jurassic.World.2.Das.gefalle...
Ant-Man.and.the.Wasp.TS.LD.G...
Skyscraper.2018.German.AC3LD...
Jurassic.World.2.Das.gefalle...
Jurassic.World.2.Das.gefalle...
Jurassic.World.2.Das.gefalle...
Skyscraper.2018.German.AC3LD...
Skyscraper.2018.German.AC3LD...

Neuerscheinungen 2017-18
I.Feel.Pretty.2018.German.DT...
I.Feel.Pretty.2018.German.DT...
Romina.2018.German.1080p.WEB...
Romina.2018.German.720p.WEB....
Heilstaetten.2018.German.AC3...
Heilstaetten.2018.German.AC3...
Early.Man.Steinzeit.bereit.2...
You.Get.Me.2017.German.DL.72...
You.Get.Me.2017.German.DL.10...
Alien.Siege.Angriffsziel.Erd...

XXX
BlackedRaw.18.09.04.Haley.Re...
BitchConfessions.18.09.03.Ba...
ATKHairy.18.09.01.Apricot.Pi...
BangBros18.18.09.04.Julz.Got...
ATKHairy.18.09.02.Ivy.Adams....
BackroomCastingCouch.18.09.0...
AnalTeenAngels.18.09.04.Selv...
Anilos.18.09.04.Florane.Russ...
AussieDoll.17.04.18.Leila.Se...
Bang.RealMILFs.18.09.04.Miss...
BruceAndMorgan.18.08.24.Bruc...
Bang.RealTeens.18.09.03.Soph...
AmateurCFNM.18.09.04.Charlot...
BabyGotBoobs.18.09.04.Quinn....
BigGulpGirls.18.08.27.Nora.I...
Beauty4K.18.09.03.Nikol.Baby...
ATKGirlfriends.18.09.03.Lily...
BlackValleyGirls.18.09.04.Ho...
AuntJudys.18.09.03.Helen.Vol...
BeautyAndTheSenior.18.08.26....

3D
Avengers.Infinity.War.3D.201...
Avengers.Infinity.War.3D.201...
Rampage.Big.Meets.Bigger.3D....
Rampage.Big.Meets.Bigger.3D....
Rampage.Big.Meets.Bigger.3D....
Winter.Games.3D.2013.DUAL.CO...
Tomb.Raider.3D.2018.German.7...
Rampage.Big.Meets.Bigger.3D....
Rampage.Big.Meets.Bigger.3D....
Tomb.Raider.3D.2018.MULTi.CO...
Pacific.Rim.Uprising.3D.2018...
Ready.Player.One.3D.2018.Ger...
Rampage.-.Big.Meets.Bigger.2...
Ready.Player.One.2018.3D.HOU...
Ready.Player.One.2018.3D.HSB...

Old_Stuff
Den.Himmel.gibts.echt.DL.108...
Vikings.S02.German.DL.1080p....
Be.Kind.Rewind.Abgedreht.200...
Be.Kind.Rewind.Abgedreht.200...
Dracula.The.Dark.Lord.2012.G...
21.2008.German.DL.1080p.BluR...
Achtung.fertig.WK.Swissgerma...
The.Ouija.Exorcism.2015.MULT...
Meine.liebe.Rabenmutter.germ...
Da.Vincis.Demons.S01.Complet...
Eragon.Das.Vermaechtnis.der....
Adele.und.das.Geheimnis.des....
Die.fabelhafte.Welt.der.Amel...
Haus.des.Geldes.S01.German.M...
How.I.Met.Your.Mother.S01.Ge...

Filme
Papillon.1973.German.DL.1080...
Papillon.1973.German.720p.Bl...
Die.Strategie.der.Spinne.197...
Die.Strategie.der.Spinne.197...
The.Deuce.S02.GERMAN.DL.720p...
The.Big.Bang.Theory.S11.Germ...
The.Big.Bang.Theory.S11.Germ...
Succession.S01.German.DD51.S...
Succession.S01.German.DD51.S...
The.Last.Ship.S05.GERMAN.DUB...
Crazy.Ex.Girlfriend.S03.Germ...
The.Last.Ship.S05.GERMAN.DUB...
Crazy.Ex.Girlfriend.S03.Germ...
Once.Upon.a.Time.S07.German....
Once.Upon.a.Time.S07.German....
Fear.The.Walking.Dead.S04.Ge...
Fear.The.Walking.Dead.S04.Ge...
Bad.Boys.II.2003.German.DL.2...
Crossfire.2008.German.DTS.10...
Crossfire.2016.German.DL.108...
Crows.Zero.2.The.Crows.are.b...
Headshot.2016.German.1080p.B...
Croupier.1998.German.AC3D.DL...
Crimson.Peak.2015.German.DTS...

 
 
I.Feel.Pretty.2018.German.DTS.DL.720p.BluRay.x264-COiNCiDENCE

Jahr: 2018
Genre: Komödie
Sprache: Deutsch DTS | Englisch DTS
Laufzeit: 1h 50mn
Bitrate: 4 318 Kbps
Format: MKV
Größe: 3.32 GiB
Release:

Beschreibung:

Renee Bennett (Amy Schumer) arbeitet bei einer Kosmetikfirma und weiß, wie man sich als Durchschnittperson in der Welt der Schönen fühlt. Nach einem Unfall im Fitnessstudio fühlt sie sich jedoch komplett verwandelt und bildet sich ein, wunderschön zu sein. Zwar sieht sie für alle anderen genauso aus wie zuvor, aber mit dem vermeintlichen Zauber entwickelt sie ein neues Selbstvertrauen, das ihr hilft, zügig die Karriereleiter hinaufzuklettern und dabei den Respekt ihres Idols und ihrer Chefin Avery LeClaire (Michelle Williams) zu gewinnen. Auch in der Liebe läuft es plötzlich hervorragend, lernt sie dank ihrem neuen Selbstvertrauen doch einen charmanten Mann (Rory Scovel) kennen. Doch aus Selbstbewusstsein wird schnell Arroganz und schon bald ist Renee von den Querelen ihrer weniger erfolgreichen Freundinnen nur noch genervt. Es kann eben nicht jeder so perfekt sein wie sie, denkt sich die vormals so verständnisvolle Aufsteigerin. Dann verblasst der „Zauber“ wieder…



Complete name                            : coincidence-ifeelpretty-720p.mkv
Format                                   : Matroska
Format version                           : Version 4 / Version 2
File size                                : 3.32 GiB
Duration                                 : 1h 50mn
Overall bit rate                         : 4 318 Kbps
Encoded date                             : UTC 2018-09-11 07:15:46
Writing application                      : mkvmerge v8.3.0 ('Over the Horizon') 64bit
Writing library                          : libebml v1.3.1 + libmatroska v1.4.2
DURATION                                 : 00:28:32.292000000
NUMBER_OF_FRAMES                         : 11
NUMBER_OF_BYTES                          : 372
_STATISTICS_WRITING_APP                  : mkvmerge v8.3.0 ('Over the Horizon') 64bit
_STATISTICS_WRITING_DATE_UTC             : 2018-09-11 07:15:46
_STATISTICS_TAGS                         : BPS DURATION NUMBER_OF_FRAMES NUMBER_OF_BYTES

Video
ID                                       : 1
Format                                   : AVC
Format/Info                              : Advanced Video Codec
Format profile                           : High@L4.1
Format settings, CABAC                   : Yes
Format settings, ReFrames                : 5 frames
Codec ID                                 : V_MPEG4/ISO/AVC
Duration                                 : 1h 50mn
Bit rate                                 : 1 214 Kbps
Width                                    : 1 280 pixels
Height                                   : 536 pixels
Display aspect ratio                     : 2.40:1
Frame rate mode                          : Constant
Frame rate                               : 24.000 fps
Color space                              : YUV
Chroma subsampling                       : 4:2:0
Bit depth                                : 8 bits
Scan type                                : Progressive
Bits/(Pixel*Frame)                       : 0.074
Stream size                              : 955 MiB (28%)
Writing library                          : x264 core 155 r2901 7d0ff22
Encoding settings                        : cabac=1 / ref=5 / deblock=1:-1:-1 / analyse=0x3:0x113 / me=umh / subme=10 / psy=1 / psy_rd=1.00:0.00 / mixed_ref=1 / me_range=16 / chroma_me=1 / trellis=2 / 8x8dct=1 / cqm=0 / deadzone=21,11 / fast_pskip=0 / chroma_qp_offset=-2 / threads=17 / lookahead_threads=1 / sliced_threads=0 / nr=0 / decimate=1 / interlaced=0 / bluray_compat=0 / constrained_intra=0 / bframes=5 / b_pyramid=2 / b_adapt=1 / b_bias=0 / direct=3 / weightb=1 / open_gop=0 / weightp=1 / keyint=250 / keyint_min=24 / scenecut=40 / intra_refresh=0 / rc_lookahead=40 / rc=crf / mbtree=1 / crf=20.0 / qcomp=0.60 / qpmin=16 / qpmax=69 / qpstep=4 / ip_ratio=1.40 / aq=1:1.00
Language                                 : English
Default                                  : Yes
Forced                                   : No
DURATION                                 : 01:50:02.000000000
NUMBER_OF_FRAMES                         : 158448
NUMBER_OF_BYTES                          : 1070139297
_STATISTICS_WRITING_APP                  : mkvmerge v8.3.0 ('Over the Horizon') 64bit
_STATISTICS_WRITING_DATE_UTC             : 2018-09-11 07:15:46
_STATISTICS_TAGS                         : BPS DURATION NUMBER_OF_FRAMES NUMBER_OF_BYTES

Audio #1
ID                                       : 2
Format                                   : DTS
Format/Info                              : Digital Theater Systems
Mode                                     : 16
Format settings, Endianness              : Big
Codec ID                                 : A_DTS
Duration                                 : 1h 50mn
Bit rate mode                            : Constant
Bit rate                                 : 1 509 Kbps
Channel(s)                               : 6 channels
Channel positions                        : Front: L C R, Side: L R, LFE
Sampling rate                            : 48.0 KHz
Bit depth                                : 16 bits
Compression mode                         : Lossy
Stream size                              : 1.16 GiB (35%)
Language                                 : German
Default                                  : Yes
Forced                                   : No

Audio #2
ID                                       : 3
Format                                   : DTS
Format/Info                              : Digital Theater Systems
Mode                                     : 16
Format settings, Endianness              : Big
Codec ID                                 : A_DTS
Duration                                 : 1h 50mn
Bit rate mode                            : Constant
Bit rate                                 : 1 509 Kbps
Channel(s)                               : 6 channels
Channel positions                        : Front: L C R, Side: L R, LFE
Sampling rate                            : 48.0 KHz
Bit depth                                : 16 bits
Compression mode                         : Lossy
Stream size                              : 1.16 GiB (35%)
Language                                 : English
Default                                  : No
Forced                                   : No

Text
ID                                       : 4
Format                                   : UTF-8
Codec ID                                 : S_TEXT/UTF8
Codec ID/Info                            : UTF-8 Plain Text
Title                                    : German-Forced
Language                                 : German
Default                                  : Yes
Forced                                   : Yes


Download:
Share Online Share OnlineShare OnlineShare Online
 

Kommentare