Genuine Cheeky Hamster ™ High Quality ** 2 Days Shipping Usa | Más detalles | Vshare.eu VF Dvdrip
 


 

DNS SERVER AENDERNum der staatlichen Zensur zu umgehen. Sollten wir von eurem Provider geseprrt werden, nutzt den TOR BROWSER oder ändert euren DNS SERVER.

Filmwünsche können bei uns im Forum abgegeben werden

Wir Speichern Nicht




 
 
 
Top Releases
Der.Nebelmann.2017.GERMAN.72...
Der.Nebelmann.2017.GERMAN.10...
Der.Nebelmann.2017.GERMAN.DU...
Oceans.8.2018.German.AC3.5.1...
Oceans.8.2018.German.AC3.5.1...
Oceans.8.2018.German.AC3.5.1...
Anon.2018.German.AC3.DL.720p...
Anon.2018.German.AC3.DL.1080...
Solo.A.Star.Wars.Story.2018....
Solo.A.Star.Wars.Story.2018....

Cinedubs
Skyscraper.German.DL.AC3.Dub...
Skyscraper.German.DL.AC3.Dub...
Hotel.Artemis.2018.GERMAN.DL...
Hotel.Artemis.2018.GERMAN.DL...
The.First.Purge.2018.German....
The.First.Purge.2018.German....
The.First.Purge.2018.German....
Hotel.Transsilvanien.3.Ein.M...
Hotel.Transsilvanien.3.Ein.M...
Hotel.Transsilvanien.3.Ein.M...

Neuerscheinungen 2017-18
Johnny.Guitar.1954.MULTi.COM...
X-Men.Der.letzte.Widerstand....
Mom.and.Dad.2017.GERMAN.DL.1...
Housesitter.1992.MULTi.COMPL...
X-Men.2.X2.2003.COMPLETE.UHD...
Neun.Monate.Nine.Months.1995...
X-Men.2000.COMPLETE.UHD.BLUR...
Mom.and.Dad.2017.MULTI.COMPL...
The.Asian.Connection.2016.CO...
Mom.and.Dad.2017.GERMAN.720p...

XXX
1By-Day.18.09.19.Florane.Rus...
Aziani.18.09.15.Kacey.Miller...
BackroomCastingCouch.18.09.1...
1000Facials.18.09.17.Olive.G...
AnalTeenAngels.18.09.18.Mery...
Bang.Europe.4.XXX.720p.WEBRi...
AssParade.18.09.17.Valentina...
AllOver30.18.09.18.Kiana.Kra...
Alone.In.Her.Room.2.XXX.720p...
Amateur.Teen.Lap.Grinders.2....
Bang.Europe.4.XXX.1080p.WEBR...
AllOver30.18.09.20.Cierra.Ma...
ALSScan.18.09.19.Paige.Owens...
AuntJudys.18.09.17.Helen.Vol...
Alone.In.Her.Room.2.XXX.1080...
ATKHairy.18.09.14.Alice.Merc...
BangBros18.18.09.18.Ana.Rose...
Bang.RealMILFs.18.09.18.Jasm...
Anilos.18.09.18.Tracey.Hein....
Bang.RealTeens.18.09.17.Jess...

3D
Sharknado.6.The.Last.One.3D....
Solo.A.Star.Wars.Story.3D.20...
Solo.A.Star.Wars.Story.3D.20...
Die.Biene.Maja.2.Die.Honigsp...
Avengers.Infinity.War.3D.201...
Avengers.Infinity.War.3D.201...
Rampage.Big.Meets.Bigger.3D....
Rampage.Big.Meets.Bigger.3D....
Rampage.Big.Meets.Bigger.3D....
Winter.Games.3D.2013.DUAL.CO...
Tomb.Raider.3D.2018.German.7...
Rampage.Big.Meets.Bigger.3D....
Rampage.Big.Meets.Bigger.3D....
Tomb.Raider.3D.2018.MULTi.CO...
Pacific.Rim.Uprising.3D.2018...

Old_Stuff
Schimanski.-.Duisburg.Ruhror...
Akte.X.S02.German.DTS.DL.108...
How.I.Met.Your.Mother.S02.Ge...
Akte.X.S01.German.DTS.DL.108...
Den.Himmel.gibts.echt.DL.108...
Vikings.S02.German.DL.1080p....
Be.Kind.Rewind.Abgedreht.200...
Be.Kind.Rewind.Abgedreht.200...
Dracula.The.Dark.Lord.2012.G...
21.2008.German.DL.1080p.BluR...
Achtung.fertig.WK.Swissgerma...
The.Ouija.Exorcism.2015.MULT...
Meine.liebe.Rabenmutter.germ...
Da.Vincis.Demons.S01.Complet...
Eragon.Das.Vermaechtnis.der....

Filme
Gran.Torino.2008.German.AC3....
Die.durch.die.Hoelle.gehen.1...
The.Originals.S05.GERMAN.DUB...
The.Boneyard.1991.German.DL....
Mr.Mercedes.S02.German.DD+51...
Mr.Mercedes.S02.German.DD+51...
The.Handmaids.Tale.S02.Germa...
The.Handmaids.Tale.S02.Germa...
Die.durch.die.Hoelle.gehen.1...
Oceans.8.German.DL.AC3.Dubbe...
Oceans.8.German.DL.AC3.Dubbe...
Neun.Monate.1995.German.720p...
Red.Nights.2009.German.1080p...
Pinup.Dolls.on.Ice.Uncut.201...
Die.Zwangsjacke.1964.German....
Der.Club.der.Teufelinnen.199...
Dont.Move.Halt.still.2017.Ge...
Dope.COMPLETE.German.DD51.ML...
Oceans.8.2018.German.AC3.216...
Wild.at.Heart.1990.German.AC...
Wild.at.Heart.1990.German.AC...
Die.Stiefbrueder.2008.German...
Blacula.1972.German.AC3D.DL....
Solo.A.Star.Wars.Story.2018....

 
 
Gran.Torino.2008.German.AC3.1080p.BluRay.x265-GTF

Jahr: 2008
Genre: Drama
Sprache: Deutsch AC3
Laufzeit: 1h 56mn
Bitrate: 2 469 Kbps
Format: MKV
Größe: 2.01 GiB
Release:

Beschreibung:

Der frustrierte Koreakrieg-Veteran Walt Kowalski laesst sichnicht zum Opfer machen. Gegen die ansteigende Gewalt in seiner Nachbarschaftgeht er mit aeusserster Haerte und Selbstjustiz vor.Als ihm fast seine groesste Leidenschaft geklaut worden waere,sein Auto, ein 1972er Gran Torino, versucht er, anstatt den Taeter,einen asiatischen Teenager, der zugleich sein Nachbar ist,zu bestrafen, diesen wieder auf den rechten Weg zu fuehren.



Complete name                            : gtf-grantorino.mkv
Format                                   : Matroska
Format version                           : Version 4 / Version 2
File size                                : 2.01 GiB
Duration                                 : 1h 56mn
Overall bit rate                         : 2 469 Kbps
Encoded date                             : UTC 2018-09-26T06:18:38Z
Writing application                      : HandBrake 1.1.2 2018090500
Writing library                          : Lavf57.7.2

Video
ID                                       : 1
Format                                   : HEVC
Format/Info                              : High Efficiency Video Coding
Format profile                           : Main@L4.0
Codec ID                                 : V_MPEGH/ISO/HEVC
Duration                                 : 1h 56mn
Bit rate                                 : 1 780 Kbps
Width                                    : 1 920 pixels
Height                                   : 800 pixels
Display aspect ratio                     : 2.40:1
Frame rate mode                          : Constant
Frame rate                               : 23.976 fps
Color space                              : YUV
Chroma subsampling                       : 4:2:0
Bit depth                                : 8 bits
Bits/(Pixel*Frame)                       : 0.048
Stream size                              : 1.45 GiB (72%)
Writing library                          : x265 2.6:[Windows][GCC 7.3.0][64 bit] 8bit+10bit+12bit
Encoding settings                        : cpuid=1105919 / frame-threads=3 / numa-pools=8 / wpp / no-pmode / no-pme / no-psnr / no-ssim / log-level=2 / input-csp=1 / input-res=1920x800 / interlace=0 / total-frames=0 / level-idc=0 / high-tier=1 / uhd-bd=0 / ref=4 / no-allow-non-conformance / no-repeat-headers / annexb / no-aud / no-hrd / info / hash=0 / no-temporal-layers / open-gop / min-keyint=24 / keyint=240 / bframes=4 / b-adapt=2 / b-pyramid / bframe-bias=0 / rc-lookahead=25 / lookahead-slices=4 / scenecut=40 / no-intra-refresh / ctu=64 / min-cu-size=8 / no-rect / no-amp / max-tu-size=32 / tu-inter-depth=1 / tu-intra-depth=1 / limit-tu=0 / rdoq-level=2 / dynamic-rd=0.00 / no-ssim-rd / signhide / no-tskip / nr-intra=0 / nr-inter=0 / no-constrained-intra / no-strong-intra-smoothing / max-merge=3 / limit-refs=3 / limit-modes / me=3 / subme=3 / merange=57 / temporal-mvp / weightp / no-weightb / no-analyze-src-pics / deblock=0:0 / sao / no-sao-non-deblock / rd=4 / no-early-skip / rskip / no-fast-intra / no-tskip-fast / no-cu-lossless / no-b-intra / no-splitrd-skip / rdpenalty=0 / psy-rd=2.00 / psy-rdoq=1.00 / no-rd-refine / analysis-reuse-mode=0 / no-lossless / cbqpoffs=0 / crqpoffs=0 / rc=crf / crf=22.0 / qcomp=0.60 / qpstep=4 / stats-write=0 / stats-read=0 / ipratio=1.40 / pbratio=1.30 / aq-mode=1 / aq-strength=1.00 / cutree / zone-count=0 / no-strict-cbr / qg-size=32 / no-rc-grain / qpmax=69 / qpmin=0 / no-const-vbv / sar=1 / overscan=0 / videoformat=5 / range=0 / colorprim=1 / transfer=1 / colormatrix=1 / chromaloc=0 / display-window=0 / max-cll=0,0 / min-luma=0 / max-luma=255 / log2-max-poc-lsb=8 / vui-timing-info / vui-hrd-info / slices=1 / no-opt-qp-pps / no-opt-ref-list-length-pps / no-multi-pass-opt-rps / scenecut-bias=0.05 / no-opt-cu-delta-qp / no-aq-motion / no-hdr / no-hdr-opt / no-dhdr10-opt / analysis-reuse-level=5 / scale-factor=0 / refine-intra=0 / refine-inter=0 / refine-mv=0 / no-limit-sao / ctu-info=0 / no-lowpass-dct / refine-mv-type=0 / copy-pic=1
Default                                  : Yes
Forced                                   : No

Audio
ID                                       : 2
Format                                   : AC-3
Format/Info                              : Audio Coding 3
Mode extension                           : CM (complete main)
Format settings, Endianness              : Big
Codec ID                                 : A_AC3
Duration                                 : 1h 56mn
Bit rate mode                            : Constant
Bit rate                                 : 640 Kbps
Channel(s)                               : 6 channels
Channel positions                        : Front: L C R, Side: L R, LFE
Sampling rate                            : 48.0 KHz
Bit depth                                : 16 bits
Compression mode                         : Lossy
Stream size                              : 534 MiB (26%)
Title                                    : Surround
Language                                 : German
Default                                  : Yes
Forced                                   : No


Download:
Share Online Share OnlineShare OnlineShare Online
 

Kommentare