Filecrypt zeigt vereinzelt Files als "n/a". Die Downloads sind trotzdem komplett.

DNS SERVER AENDERNum der staatlichen Zensur zu umgehen. Sollten wir von eurem Provider geseprrt werden, nutzt den TOR BROWSER oder ändert euren DNS SERVER.

Filmwünsche können bei uns im Forum abgegeben werden

Wir Speichern Nicht




 
 
 
Top Releases
Constantine.City.of.Demons.2...
Wie.der.Vater.2018.German.AC...
Private.Life.2018.German.AC3...
Tully.2018.German.AC3.DL.108...
Money.Monster.2016.German.AC...
Tully.2018.German.DL.1080p.B...
Summer.of.84.2018.German.DL....
Summer.of.84.2018.German.DL....
Summer.of.84.2018.German.DL....
Letztendlich.sind.wir.dem.Un...

Cinedubs
Ant-Man.and.the.Wasp.2018.Ge...
Ant-Man.and.the.Wasp.2018.Ge...
Ant-Man.and.the.Wasp.German....
Ant-Man.and.the.Wasp.German....
Ant-Man.and.the.Wasp.2018.Ge...
Ant-Man.and.the.Wasp.2018.Ge...
Skyscraper.German.DL.AC3.Dub...
Skyscraper.German.DL.AC3.Dub...
Hotel.Artemis.2018.GERMAN.DL...
Hotel.Artemis.2018.GERMAN.DL...

Neuerscheinungen 2017-18
Sick.for.Toys.2018.German.DL...
Presence.Es.ist.hier.2015.MU...
Gods.of.Egypt.2016.German.AC...
Haensel.und.Gretel.Hexenjaeg...
Nach.einer.wahren.Geschichte...
Sahara.2017.German.AC3.DL.10...
Nach.einer.wahren.Geschichte...
Ab.nach.Deutschland.2015.Ger...
Ab.nach.Deutschland.2015.Ger...
Triassic.World.2018.German.D...

XXX
SO.CAL.Swingers.Club.2.XXX.1...
WankItNow.17.10.22.Scarlett....
TheLifeErotic.18.09.18.Emyli...
WankItNow.17.10.22.Skyler.Mc...
WankItNow.17.10.24.Anna.Bell...
PrivateCasting-X.18.09.09.So...
Spizoo.18.09.17.Norah.Nova.O...
PrivateSociety.18.09.17.Dian...
VintageFlash.18.09.18.Holly....
Throated.18.09.18.Sovereign....
PornMegaLoad.18.09.19.Zoe.Bl...
WankItNow.17.10.26.Cherry.Bl...
PornstarPlatinum.18.09.19.Al...
WankItNow.17.10.25.Fergie.Co...
VivThomas.18.09.19.Emylia.Ar...
TrickyOldTeacher.18.09.15.Mi...
Shoplyfter.18.09.19.Lauren.P...
SO.CAL.Swingers.Club.3.XXX.7...
WankItNow.17.10.27.Kate.Anne...
WankItNow.17.10.24.Amber.Dee...

3D
Jurassic.World.Das.gefallene...
Jurassic.World.Das.gefallene...
Best.of.3D.vol.10.-.12.GERMA...
Die.Biene.Maja.2.Die.Honigsp...
Sharknado.6.The.Last.One.3D....
Solo.A.Star.Wars.Story.3D.20...
Solo.A.Star.Wars.Story.3D.20...
Die.Biene.Maja.2.Die.Honigsp...
Avengers.Infinity.War.3D.201...
Avengers.Infinity.War.3D.201...
Rampage.Big.Meets.Bigger.3D....
Rampage.Big.Meets.Bigger.3D....
Rampage.Big.Meets.Bigger.3D....
Winter.Games.3D.2013.DUAL.CO...
Tomb.Raider.3D.2018.German.7...

Old_Stuff
Britney.Spears.Live.The.Femm...
Buffy.The.Vampire.Slayer.199...
IMAX.Ride.Around.The.World.2...
Schimanski.-.Duisburg.Ruhror...
Akte.X.S02.German.DTS.DL.108...
How.I.Met.Your.Mother.S02.Ge...
Akte.X.S01.German.DTS.DL.108...
Den.Himmel.gibts.echt.DL.108...
Vikings.S02.German.DL.1080p....
Be.Kind.Rewind.Abgedreht.200...
Be.Kind.Rewind.Abgedreht.200...
Dracula.The.Dark.Lord.2012.G...
21.2008.German.DL.1080p.BluR...
Achtung.fertig.WK.Swissgerma...
The.Ouija.Exorcism.2015.MULT...

Filme
The.Walking.Dead.S09.GERMAN....
The.Walking.Dead.S09.GERMAN....
Tallulah.2016.German.AC3.DL....
Chiko.2008.German.AC3.1080p....
Plane.Dead.Zombies.on.a.Plan...
Wild.Tales.2014.German.DL.10...
The.Founder.German.DL.1080p....
Kill.Switch.Two.Worlds.Colli...
True.Crime.Ein.wahres.Verbre...
Spy.Daddy.2010.German.DL.DTS...
Resident.Evil.Vendetta.2017....
Stiefbrueder.2008.UNRATED.Ge...
Tully.2018.German.DTS.DL.108...
Hellraiser.I.Remastered.1987...
Schuld.daran.ist.Rio.1984.Ge...
Schuld.daran.ist.Rio.1984.Ge...
Ronin.1998.REMASTERED.German...
The.Founder.2016.German.DTS....
The.Curse.of.Sleeping.Beauty...
Spectral.2016.German.AC3.DL....
Totgemacht.-.The.Alzheimer.C...
Hook.1991.German.DL.2160p.UH...
Slam.2016.German.AC3.1080p.W...
Christine.1983.German.DL.216...

 
 
The.Walking.Dead.S09.GERMAN.DUBBED.DL.1080p.WebHD.x264-TVP

Jahr: 2018
Genre: Drama | Horror | Sci-Fi
Sprache: Deutsch AC3 | Englisch AC3
Laufzeit: 50min je Folge
Bitrate: 14 Mbps
Format: MKV
Größe: 5 GB je Folge
Release:

Beschreibung:

 

Die Suche nach wichtigen Hilfsmitteln,  die den  Aufbau einer funktionierenden Zivilisation garantieren sollen, fuehrt Rick (Andrew Lincoln) und die Ueberlebenden nach Washington D.C.

 

enthaltene Folgen:

The.Walking.Dead.S09E01.Ein.neuer.Anfang.GERMAN.DUBBED.DL.1080p.WebHD.x264-TVP NEU



General
Complete name                            : The.Walking.Dead.S09E01.Ein.neuer.Anfang.GERMAN.DUBBED.DL.1080p.WebHD.x264-TVP\tvp-twd-s09e01-1080p.mkv
Format                                   : Matroska
Format version                           : Version 2
File size                                : 5.85 GiB
Duration                                 : 56mn 10s
Overall bit rate                         : 14.9 Mbps
Movie name                               : The.Walking.Dead.S09E01.Ein.neuer.Anfang.GERMAN.DUBBED.DL.1080p.WebHD.x264-TVP
Encoded date                             : UTC 2018-10-08 19:56:02
Writing application                      : mkvmerge v5.6.0 ('Kenya Kane') built on May 28 2012 06:47:39
Writing library                          : libebml v1.2.2 + libmatroska v1.3.0

Video
ID                                       : 1
Format                                   : AVC
Format/Info                              : Advanced Video Codec
Format profile                           : High@L4.0
Format settings, CABAC                   : Yes
Format settings, ReFrames                : 4 frames
Codec ID                                 : V_MPEG4/ISO/AVC
Duration                                 : 56mn 10s
Bit rate                                 : 14.0 Mbps
Width                                    : 1 920 pixels
Height                                   : 1 080 pixels
Display aspect ratio                     : 16:9
Frame rate mode                          : Constant
Frame rate                               : 25.000 fps
Original frame rate                      : 23.976 fps
Color space                              : YUV
Chroma subsampling                       : 4:2:0
Bit depth                                : 8 bits
Scan type                                : Progressive
Bits/(Pixel*Frame)                       : 0.271
Stream size                              : 5.51 GiB (94%)
Title                                    : tvp-twd-s09e01-1080p
Language                                 : German
Default                                  : Yes
Forced                                   : Yes
Color primaries                          : BT.709
Transfer characteristics                 : BT.709
Matrix coefficients                      : BT.709

Audio #1
ID                                       : 2
Format                                   : AC-3
Format/Info                              : Audio Coding 3
Mode extension                           : CM (complete main)
Format settings, Endianness              : Big
Codec ID                                 : A_AC3
Duration                                 : 56mn 10s
Bit rate mode                            : Constant
Bit rate                                 : 192 Kbps
Channel(s)                               : 2 channels
Channel positions                        : Front: L R
Sampling rate                            : 48.0 KHz
Bit depth                                : 16 bits
Compression mode                         : Lossy
Stream size                              : 77.1 MiB (1%)
Language                                 : German
Default                                  : Yes
Forced                                   : Yes

Audio #2
ID                                       : 3
Format                                   : AC-3
Format/Info                              : Audio Coding 3
Mode extension                           : CM (complete main)
Format settings, Endianness              : Big
Codec ID                                 : A_AC3
Duration                                 : 56mn 10s
Bit rate mode                            : Constant
Bit rate                                 : 384 Kbps
Channel(s)                               : 6 channels
Channel positions                        : Front: L C R, Side: L R, LFE
Sampling rate                            : 48.0 KHz
Bit depth                                : 16 bits
Compression mode                         : Lossy
Stream size                              : 154 MiB (3%)
Language                                 : English
Default                                  : No
Forced                                   : No



Download:
Share-Online.biz Share-Online.bizShare-Online.bizShare-Online.biz | Rapidgator.net Rapidgator.netRapidgator.netRapidgator.net
 

Kommentare