TV Shows | How to Live With Your Parents | DocumentaryYTD Video Downloader Pro 5 9 9 1 + Patch [CracksMind] | Advanced SystemCare Pro 11 5 0 240 + Crack New | Adobe Acrobat Pro DC 2018 011 20058 + Activation [CracksMind]
 


 

Filecrypt zeigt vereinzelt Files als "n/a". Die Downloads sind trotzdem komplett.

DNS SERVER AENDERNum der staatlichen Zensur zu umgehen. Sollten wir von eurem Provider geseprrt werden, nutzt den TOR BROWSER oder ändert euren DNS SERVER.

Filmwünsche können bei uns im Forum abgegeben werden

Wir Speichern Nicht




 
 
 
Top Releases
Luis.und.die.Aliens.2018.DUA...
Prinz.Charming.2018.COMPLETE...
Santa.und.Co.Wer.rettet.Weih...
Die.Unglaublichen.2.2018.Ger...
Santa.und.Co.Wer.rettet.Weih...
Brawl.in.Cell.Block.99.2017....
Prinz.Charming.2018.GERMAN.D...
Running.Wild.2017.MULTi.COMP...
The.Night.Comes.for.Us.2018....
Mamma.Mia.Here.We.Go.Again.2...

Cinedubs
Christopher.Robin.2018.GERMA...
Christopher.Robin.2018.GERMA...
Die.unglaubliche.Reise.des.F...
Die.unglaubliche.Reise.des.F...
BlacKkKlansman.2018.GERMAN.D...
BlacKkKlansman.2018.GERMAN.D...
Mile.22.2018.German.AC3MD.DL...
Mile.22.2018.German.AC3MD.DL...
Die.Unglaublichen.2.German.D...
Die.Unglaublichen.2.German.D...

Neuerscheinungen 2017-18
The.Dinner.2017.German.AC3.D...
Tsunambee.The.Wrath.Cometh.2...
Tsunambee.The.Wrath.Cometh.2...
Shock.und.Awe.Krieg.der.Lueg...
Der.Meisterdieb.und.seine.Sc...
Private.Lessons.1981.MULTi.C...
Running.Wild.Der.Preis.der.F...
Running.Wild.Der.Preis.der.F...
Der.Geschmack.von.Leben.2017...
Tsunambee.Angriff.der.Zombie...

XXX
DigitalDesire.18.10.12.Heath...
DigitalPlayground.18.10.15.C...
Deep.Teen.Throat.3.XXX.1080p...
Darkside.18.01.26.Creampies....
DeepThroatSirens.18.10.12.Kl...
DayleneRio.18.08.01.Dangerou...
ATKGirlfriends.18.10.16.Vina...
DigitalPlayground.18.10.17.K...
DevilsFilm.Horny.Old.Men.XXX...
DayleneRio.18.07.18.Hooked.O...
DirtyMasseur.18.10.13.Vienna...
DevilsFilm.18.10.14.Scarlett...
DayleneRio.18.06.20.When.I.W...
DayleneRio.18.07.04.Breastfe...
Darkside.18.02.09.Alien.Foxx...
CzechHunter.18.10.10.E375.XX...
DigitalDesire.18.10.03.Kylie...
DaddysLilAngel.18.10.18.Emil...
DevilsFilm.18.10.13.Taylor.P...
DeepThroatSirens.18.10.04.Ma...

3D
Deep.Kleine.Helden.der.Tiefs...
Deep.3D.2017.MULTI.COMPLETE....
Detective.Dee.und.die.Legend...
Detective.Dee.und.die.Legend...
Skyscraper.3D.German.DL.AC3....
Ant-Man.and.the.Wasp.2018.3D...
Jurassic.World.Das.gefallene...
Jurassic.World.Das.gefallene...
Best.of.3D.vol.10.-.12.GERMA...
Die.Biene.Maja.2.Die.Honigsp...
Sharknado.6.The.Last.One.3D....
Solo.A.Star.Wars.Story.3D.20...
Solo.A.Star.Wars.Story.3D.20...
Die.Biene.Maja.2.Die.Honigsp...
Avengers.Infinity.War.3D.201...

Old_Stuff
Species.IV.Das.Erwachen.2007...
Species.IV.Das.Erwachen.2007...
Hotel.Transsilvanien.2012.Ge...
The.Dead.2010.German.DL.1080...
The.Dead.2.India.2013.German...
Britney.Spears.Live.The.Femm...
Buffy.The.Vampire.Slayer.199...
IMAX.Ride.Around.The.World.2...
Schimanski.-.Duisburg.Ruhror...
Akte.X.S02.German.DTS.DL.108...
How.I.Met.Your.Mother.S02.Ge...
Akte.X.S01.German.DTS.DL.108...
Den.Himmel.gibts.echt.DL.108...
Vikings.S02.German.DL.1080p....
Be.Kind.Rewind.Abgedreht.200...

Filme
Mein.Partner.mit.der.kalten....
Die.Letzte.Festung.aka.The.L...
Blind.Dating.2006.German.AC3...
Und.taeglich.gruesst.das.Mur...
Verwuenscht.2007.German.AC3....
The.Darkest.Minds.Die.Ueberl...
The.Manchu.Eagle.Murder.Cape...
The.Man.with.the.Iron.Fists....
The.Man.with.the.Iron.Fists....
El.Perdido.1961.German.DL.10...
El.Padrino.2004..German.AC3....
Carrie.2002.German.AC3D.DL.1...
Die.unvergessliche.Weihnacht...
The.Big.Lebowski.1998.Gernan...
Source.Code.2011.German.Dubb...
Entourage.2015.German.AC3D.D...
The.Magic.Piano.2011.German....
The.Loved.Ones.2009.German.D...
Transit.2018.German.1080p.Bl...
Vielmachglas.2018.German.108...
Mulholland.Drive.2001.German...
Trans.Amerika.Express.1976.G...
Mein.Partner.mit.der.kalten....
MotoGP.Moto2.Moto3.Saison.20...

 
 
Mein.Partner.mit.der.kalten.Schnauze.2.aka.K-911.1999.German.AC3D.DL.1080p.UK-BluRay.x265-FuN

Jahr: 1999
Genre: Action, Komödie
Sprache: Deutsch AC3 | Englisch AC3
Laufzeit: 1h 31mn
Bitrate: 4 436 Kbps
Format: MKV
Größe: 2.82 GiB
Release:

Beschreibung:

Auch an Helden nagt der Zahn der Zeit und Dooleys gnadenloser Chef verordnet den etwas aus der Form geratenen Hund und Herrchen eine echte Roßkur: Fitnesstraining, strenge Diät und – neue Partner. Die diensteifrige Polizistin Welles und ihr guterzogener Dobermann Zeus sind hochmotiviert, an mustergültiger Disziplin kaum zu übertreffen und somit natürlich ein schmerzhafter Dorn im Auge des gemütlichen Männer-Teams! Aber Gegensätze ziehen sich bekanntlich an und spätestens, als ein psychopathischer Killer gnadenlos Jagd auf Dooley macht, lernen die beiden Freunde fürs Leben die sechs zusätzlichen, schlanken und durchtrainierten Beine dann doch zu schätzen. Schließlich kann das verschmitzte Cop-Duo eines wieder mal unmißverständlich klar machen: Ein erfahrener und abgebrühter Cop, ob nun haarig oder nicht, ist jedem noch so durchtrainierten Frischling immer eine feuchte Nasenlänge voraus!




Format                                   : Matroska
Format version                           : Version 4 / Version 2
File size                                : 2.82 GiB
Duration                                 : 1h 31mn
Overall bit rate                         : 4 436 Kbps
Movie name                               : Mein.Partner.mit.der.kalten.Schnauze.2.1999.German.DD51D.DL.1080p.UK.BD.Remux-mb89
Encoded date                             : UTC 2018-05-05 11:45:20
Writing application                      : mkvmerge v20.0.0 ('I Am The Sun') 64-bit
Writing library                          : libebml v1.3.5 + libmatroska v1.4.8
DURATION                                 : 00:00:59.310000000
NUMBER_OF_FRAMES                         : 14
NUMBER_OF_BYTES                          : 750
_STATISTICS_WRITING_APP                  : mkvmerge v20.0.0 ('I Am The Sun') 64-bit
_STATISTICS_WRITING_DATE_UTC             : 2018-05-05 11:45:20
_STATISTICS_TAGS                         : BPS DURATION NUMBER_OF_FRAMES NUMBER_OF_BYTES

Video
ID                                       : 1
Format                                   : HEVC
Format/Info                              : High Efficiency Video Coding
Format profile                           : Main@L4.0
Codec ID                                 : V_MPEGH/ISO/HEVC
Duration                                 : 1h 31mn
Bit rate                                 : 3 579 Kbps
Width                                    : 1 920 pixels
Height                                   : 1 036 pixels
Display aspect ratio                     : 1.85:1
Frame rate mode                          : Constant
Frame rate                               : 23.976 fps
Color space                              : YUV
Chroma subsampling                       : 4:2:0
Bit depth                                : 8 bits
Bits/(Pixel*Frame)                       : 0.075
Stream size                              : 2.28 GiB (81%)
Writing library                          : x265 2.1:[Windows][GCC 5.3.1][64 bit] 8bit
Encoding settings                        : wpp / ctu=64 / min-cu-size=8 / max-tu-size=32 / tu-intra-depth=1 / tu-inter-depth=1 / me=1 / subme=2 / merange=57 / no-rect / no-amp / max-merge=2 / temporal-mvp / no-early-skip / rskip / rdpenalty=0 / no-tskip / no-tskip-fast / strong-intra-smoothing / no-lossless / no-cu-lossless / no-constrained-intra / fast-intra / open-gop / no-temporal-layers / interlace=0 / keyint=240 / min-keyint=24 / scenecut=40 / rc-lookahead=15 / lookahead-slices=6 / bframes=4 / bframe-bias=0 / b-adapt=0 / ref=3 / limit-refs=3 / no-limit-modes / weightp / no-weightb / aq-mode=1 / qg-size=32 / aq-strength=1.00 / cbqpoffs=0 / crqpoffs=0 / rd=2 / psy-rd=2.00 / rdoq-level=0 / psy-rdoq=0.00 / log2-max-poc-lsb=8 / no-rd-refine / signhide / deblock=0:0 / sao / no-sao-non-deblock / b-pyramid / cutree / no-intra-refresh / rc=crf / crf=22.0 / qcomp=0.60 / qpmin=0 / qpmax=69 / qpstep=4 / ipratio=1.40 / pbratio=1.30
Language                                 : English
Default                                  : Yes
Forced                                   : Yes
DURATION                                 : 01:31:03.458000000
NUMBER_OF_FRAMES                         : 130992
NUMBER_OF_BYTES                          : 2503480399
_STATISTICS_WRITING_APP                  : mkvmerge v20.0.0 ('I Am The Sun') 64-bit
_STATISTICS_WRITING_DATE_UTC             : 2018-05-05 11:45:20
_STATISTICS_TAGS                         : BPS DURATION NUMBER_OF_FRAMES NUMBER_OF_BYTES

Audio #1
ID                                       : 2
Format                                   : AC-3
Format/Info                              : Audio Coding 3
Mode extension                           : CM (complete main)
Format settings, Endianness              : Big
Codec ID                                 : A_AC3
Duration                                 : 1h 31mn
Bit rate mode                            : Constant
Bit rate                                 : 384 Kbps
Channel(s)                               : 6 channels
Channel positions                        : Front: L C R, Side: L R, LFE
Sampling rate                            : 48.0 KHz
Bit depth                                : 16 bits
Compression mode                         : Lossy
Delay relative to video                  : -5ms
Stream size                              : 250 MiB (9%)
Title                                    : GER DVD Dubbed
Language                                 : German
Default                                  : Yes
Forced                                   : Yes
DURATION                                 : 01:30:57.472000000
NUMBER_OF_FRAMES                         : 170546
NUMBER_OF_BYTES                          : 261958656
_STATISTICS_WRITING_APP                  : mkvmerge v20.0.0 ('I Am The Sun') 64-bit
_STATISTICS_WRITING_DATE_UTC             : 2018-05-05 11:45:20
_STATISTICS_TAGS                         : BPS DURATION NUMBER_OF_FRAMES NUMBER_OF_BYTES

Audio #2
ID                                       : 3
Format                                   : AC-3
Format/Info                              : Audio Coding 3
Mode extension                           : CM (complete main)
Format settings, Endianness              : Big
Codec ID                                 : A_AC3
Duration                                 : 1h 31mn
Bit rate mode                            : Constant
Bit rate                                 : 384 Kbps
Channel(s)                               : 6 channels
Channel positions                        : Front: L C R, Side: L R, LFE
Sampling rate                            : 48.0 KHz
Bit depth                                : 16 bits
Compression mode                         : Lossy
Delay relative to video                  : -5ms
Stream size                              : 250 MiB (9%)
Title                                    : Surround
Language                                 : English
Default                                  : No
Forced                                   : No
DURATION                                 : 01:31:03.456000000
NUMBER_OF_FRAMES                         : 170733
NUMBER_OF_BYTES                          : 262245888
_STATISTICS_WRITING_APP                  : mkvmerge v20.0.0 ('I Am The Sun') 64-bit
_STATISTICS_WRITING_DATE_UTC             : 2018-05-05 11:45:20
_STATISTICS_TAGS                         : BPS DURATION NUMBER_OF_FRAMES NUMBER_OF_BYTES



Download:
Share Online Share OnlineShare OnlineShare Online
 

Kommentare