God's Own Country (2017) | HD Pee Mak (2013) | Raazi (2018) Hindi Movie 720p HDRip 1.1GB 350MB ESubSUPERAntiSpyware Professional 8 0 1024 Multilingual + M... | The Magic Of Belle Isle BLuRayRip | WYSIWYG Web Builder v9.0.3.
 


 

Filecrypt zeigt vereinzelt Files als "n/a". Die Downloads sind trotzdem komplett.

DNS SERVER AENDERNum der staatlichen Zensur zu umgehen. Sollten wir von eurem Provider geseprrt werden, nutzt den TOR BROWSER oder ändert euren DNS SERVER.

Filmwünsche können bei uns im Forum abgegeben werden

Wir Speichern Nicht




 
 
 
Top Releases
Prinz.Charming.2018.GERMAN.D...
Running.Wild.2017.MULTi.COMP...
The.Night.Comes.for.Us.2018....
Mamma.Mia.Here.We.Go.Again.2...
Prinz.Charming.2018.GERMAN.D...
Das.Schicksal.ist.ein.mieser...
Prinz.Charming.2018.GERMAN.7...
Die.Unglaublichen.2.German.D...
Die.Unglaublichen.2.German.D...
Hereditary.Das.Vermaechtnis....

Cinedubs
Christopher.Robin.2018.GERMA...
Christopher.Robin.2018.GERMA...
Die.unglaubliche.Reise.des.F...
Die.unglaubliche.Reise.des.F...
BlacKkKlansman.2018.GERMAN.D...
BlacKkKlansman.2018.GERMAN.D...
Mile.22.2018.German.AC3MD.DL...
Mile.22.2018.German.AC3MD.DL...
Die.Unglaublichen.2.German.D...
Die.Unglaublichen.2.German.D...

Neuerscheinungen 2017-18
Der.Meisterdieb.und.seine.Sc...
Private.Lessons.1981.MULTi.C...
Running.Wild.Der.Preis.der.F...
Running.Wild.Der.Preis.der.F...
Der.Geschmack.von.Leben.2017...
Tsunambee.Angriff.der.Zombie...
Der.Kung.Fu-Fighter.von.Chin...
Pluto.Ein.Schutzengel.auf.vi...
Eine.Welt.aus.Waeldern.S01D0...
Violet.Evergarden.Vol1.D1-3....

XXX
DigitalDesire.18.10.12.Heath...
DigitalPlayground.18.10.15.C...
Deep.Teen.Throat.3.XXX.1080p...
Darkside.18.01.26.Creampies....
DeepThroatSirens.18.10.12.Kl...
DayleneRio.18.08.01.Dangerou...
ATKGirlfriends.18.10.16.Vina...
DigitalPlayground.18.10.17.K...
DevilsFilm.Horny.Old.Men.XXX...
DayleneRio.18.07.18.Hooked.O...
DirtyMasseur.18.10.13.Vienna...
DevilsFilm.18.10.14.Scarlett...
DayleneRio.18.06.20.When.I.W...
DayleneRio.18.07.04.Breastfe...
Darkside.18.02.09.Alien.Foxx...
CzechHunter.18.10.10.E375.XX...
DigitalDesire.18.10.03.Kylie...
DaddysLilAngel.18.10.18.Emil...
DevilsFilm.18.10.13.Taylor.P...
DeepThroatSirens.18.10.04.Ma...

3D
Deep.Kleine.Helden.der.Tiefs...
Deep.3D.2017.MULTI.COMPLETE....
Detective.Dee.und.die.Legend...
Detective.Dee.und.die.Legend...
Skyscraper.3D.German.DL.AC3....
Ant-Man.and.the.Wasp.2018.3D...
Jurassic.World.Das.gefallene...
Jurassic.World.Das.gefallene...
Best.of.3D.vol.10.-.12.GERMA...
Die.Biene.Maja.2.Die.Honigsp...
Sharknado.6.The.Last.One.3D....
Solo.A.Star.Wars.Story.3D.20...
Solo.A.Star.Wars.Story.3D.20...
Die.Biene.Maja.2.Die.Honigsp...
Avengers.Infinity.War.3D.201...

Old_Stuff
Species.IV.Das.Erwachen.2007...
Species.IV.Das.Erwachen.2007...
Hotel.Transsilvanien.2012.Ge...
The.Dead.2010.German.DL.1080...
The.Dead.2.India.2013.German...
Britney.Spears.Live.The.Femm...
Buffy.The.Vampire.Slayer.199...
IMAX.Ride.Around.The.World.2...
Schimanski.-.Duisburg.Ruhror...
Akte.X.S02.German.DTS.DL.108...
How.I.Met.Your.Mother.S02.Ge...
Akte.X.S01.German.DTS.DL.108...
Den.Himmel.gibts.echt.DL.108...
Vikings.S02.German.DL.1080p....
Be.Kind.Rewind.Abgedreht.200...

Filme
The.Magic.Piano.2011.German....
The.Loved.Ones.2009.German.D...
Transit.2018.German.1080p.Bl...
Vielmachglas.2018.German.108...
Mulholland.Drive.2001.German...
Trans.Amerika.Express.1976.G...
Mein.Partner.mit.der.kalten....
MotoGP.Moto2.Moto3.Saison.20...
MotoGP.Moto2.Moto3.Saison.20...
Marfa.Girl.Fucking.Texas.201...
The.Lost.Bladesman.2011.Germ...
The.Lost.Boys.3.The.Thirst.2...
The.Lost.Legion.2014.German....
The.Lost.Planet.2010.German....
The.Lost.Samaritan.2008.Germ...
Hide.and.Seek.2000.German.72...
Planet.der.Affen.2001.German...
Modern.Family.S08.COMPLETE.G...
Modern.Family.S08.COMPLETE.G...
Ballers.S04.GERMAN.DUBBED.DL...
Ballers.S04.GERMAN.DUBBED.DL...
Knowing.Die.Zukunft.endet.je...
2001.Odyssee.im.Weltraum.196...
Humans.S03.German.DD20.Dubbe...

 
 
Running.Wild.Der.Preis.der.Freiheit.2017.German.720p.BluRay.x264-ENCOUNTERS

Jahr: 2017
Genre: Drama, Western
Sprache: Deutsch DTS
Laufzeit: 1h 39mn
Bitrate: 3 592 Kbps
Format: MKV
Größe: 2.49 GiB
Release:

Beschreibung:

Stella Davis ist eine Witwe, die sich ihr Leben finanziert, indem sie auf ihrer Ranch versucht fünf Strafgefangene wieder auf das Leben in Freiheit vorzubereiten. Die ungewöhnliche Truppe kümmert sich herzergreifend um eine Herde abgemagerter Wildpferde, die auf Stellas Land gewandert ist. Doch immer wieder werden Stella Hürden in den Weg gestellt, die sie selbst nicht versteht: Sie kämpft gegen Vorurteile, Gier und die kaltherzige Bürokratie. Als dann auch noch die radikale Milliardärin und selbsternannte Tierschützerin Meredith Parish auf sie und die Wildpferde aufmerksam wird, und ihren ganzen Einfluss geltend macht, dass die Wildpferde wieder ausgewildert werden, droht Stella alles zu verlieren.



Complete name                            : encounters-ruwi_720p.mkv
Format                                   : Matroska
Format version                           : Version 4 / Version 2
File size                                : 2.49 GiB
Duration                                 : 1h 39mn
Overall bit rate                         : 3 592 Kbps
Encoded date                             : UTC 2018-10-27 05:33:30
Writing application                      : mkvmerge v19.0.0 ('Brave Captain') 64-bit
Writing library                          : libebml v1.3.5 + libmatroska v1.4.8
DURATION                                 : 01:39:09.110000000
NUMBER_OF_FRAMES                         : 557729
NUMBER_OF_BYTES                          : 1122150748
_STATISTICS_WRITING_APP                  : mkvmerge v19.0.0 ('Brave Captain') 64-bit
_STATISTICS_WRITING_DATE_UTC             : 2018-10-27 05:33:30
_STATISTICS_TAGS                         : BPS DURATION NUMBER_OF_FRAMES NUMBER_OF_BYTES

Video
ID                                       : 1
Format                                   : AVC
Format/Info                              : Advanced Video Codec
Format profile                           : High@L4.1
Format settings, CABAC                   : Yes
Format settings, ReFrames                : 5 frames
Codec ID                                 : V_MPEG4/ISO/AVC
Duration                                 : 1h 39mn
Bit rate                                 : 2 011 Kbps
Width                                    : 1 280 pixels
Height                                   : 536 pixels
Display aspect ratio                     : 2.40:1
Frame rate mode                          : Constant
Frame rate                               : 24.000 fps
Color space                              : YUV
Chroma subsampling                       : 4:2:0
Bit depth                                : 8 bits
Scan type                                : Progressive
Bits/(Pixel*Frame)                       : 0.122
Stream size                              : 1.39 GiB (56%)
Title                                    : encounters-ruwi_720p
Writing library                          : x264 core 157 r2935 545de2f
Encoding settings                        : cabac=1 / ref=5 / deblock=1:-1:-1 / analyse=0x3:0x133 / me=umh / subme=7 / psy=1 / psy_rd=1.00:0.15 / mixed_ref=1 / me_range=16 / chroma_me=1 / trellis=1 / 8x8dct=1 / cqm=0 / deadzone=21,11 / fast_pskip=0 / chroma_qp_offset=-3 / threads=17 / lookahead_threads=2 / sliced_threads=0 / nr=0 / decimate=1 / interlaced=0 / bluray_compat=0 / constrained_intra=0 / bframes=3 / b_pyramid=2 / b_adapt=1 / b_bias=0 / direct=1 / weightb=1 / open_gop=0 / weightp=2 / keyint=250 / keyint_min=24 / scenecut=40 / intra_refresh=0 / rc_lookahead=40 / rc=crf / mbtree=1 / crf=20.0 / qcomp=0.60 / qpmin=0 / qpmax=69 / qpstep=4 / ip_ratio=1.40 / aq=1:1.00
Default                                  : Yes
Forced                                   : No

Audio
ID                                       : 2
Format                                   : DTS
Format/Info                              : Digital Theater Systems
Mode                                     : 16
Format settings, Endianness              : Big
Codec ID                                 : A_DTS
Duration                                 : 1h 39mn
Bit rate mode                            : Constant
Bit rate                                 : 1 509 Kbps
Channel(s)                               : 6 channels
Channel positions                        : Front: L C R, Side: L R, LFE
Sampling rate                            : 48.0 KHz
Bit depth                                : 24 bits
Compression mode                         : Lossy
Stream size                              : 1.05 GiB (42%)
Title                                    : German DTS 5.1 @ 1 509 Kbps
Language                                 : German
Default                                  : Yes
Forced                                   : No


Download:
Share Online Share OnlineShare OnlineShare Online
 

Kommentare