Filecrypt zeigt vereinzelt Files als "n/a". Die Downloads sind trotzdem komplett.

DNS SERVER AENDERNum der staatlichen Zensur zu umgehen. Sollten wir von eurem Provider geseprrt werden, nutzt den TOR BROWSER oder ändert euren DNS SERVER.

Filmwünsche können bei uns im Forum abgegeben werden

Wir Speichern Nicht




 
 
 
Top Releases
The.Art.of.the.Steal.Der.Kun...
Luis.und.die.Aliens.2018.DUA...
Prinz.Charming.2018.COMPLETE...
Santa.und.Co.Wer.rettet.Weih...
Die.Unglaublichen.2.2018.Ger...
Santa.und.Co.Wer.rettet.Weih...
Brawl.in.Cell.Block.99.2017....
Prinz.Charming.2018.GERMAN.D...
Running.Wild.2017.MULTi.COMP...
The.Night.Comes.for.Us.2018....

Cinedubs
Christopher.Robin.2018.GERMA...
Christopher.Robin.2018.GERMA...
Die.unglaubliche.Reise.des.F...
Die.unglaubliche.Reise.des.F...
BlacKkKlansman.2018.GERMAN.D...
BlacKkKlansman.2018.GERMAN.D...
Mile.22.2018.German.AC3MD.DL...
Mile.22.2018.German.AC3MD.DL...
Die.Unglaublichen.2.German.D...
Die.Unglaublichen.2.German.D...

Neuerscheinungen 2017-18
The.Dinner.2017.German.AC3.D...
Tsunambee.The.Wrath.Cometh.2...
Tsunambee.The.Wrath.Cometh.2...
Shock.und.Awe.Krieg.der.Lueg...
Der.Meisterdieb.und.seine.Sc...
Private.Lessons.1981.MULTi.C...
Running.Wild.Der.Preis.der.F...
Running.Wild.Der.Preis.der.F...
Der.Geschmack.von.Leben.2017...
Tsunambee.Angriff.der.Zombie...

XXX
EroticDesire.18.10.13.Mikki....
FamilyLust.18.10.12.Ashlynn....
DogHouseDigital.18.10.14.Kat...
EvilAngel.Kianna.Dior.Busty....
DoeProjects.18.10.18.Lady.De...
FAKings.18.10.10.Pamela.Silv...
EuroSexParties.18.10.18.Lilu...
EvilAngel.Choked.And.Soaked....
FTVMilfs.18.10.16.Sheena.Ryd...
FakeAgent.18.10.18.Amber.Dee...
EternalDesire.18.10.14.Adel....
ATKGirlfriends.18.10.17.Athe...
AbbyWinters.18.10.13.Chen.An...
FemJoy.18.10.13.Sabrina.G.Wh...
FirstAnalQuest.18.10.13.Miss...
DogHouseDigital.Help.Me.DP.M...
FitnessRooms.18.10.15.Baby.N...
FTVGirls.18.10.16.Sophia.Fun...
ExxxtraSmall.18.10.18.Chloe....
EvilAngel.Kianna.Dior.Busty....

3D
Deep.Kleine.Helden.der.Tiefs...
Deep.3D.2017.MULTI.COMPLETE....
Detective.Dee.und.die.Legend...
Detective.Dee.und.die.Legend...
Skyscraper.3D.German.DL.AC3....
Ant-Man.and.the.Wasp.2018.3D...
Jurassic.World.Das.gefallene...
Jurassic.World.Das.gefallene...
Best.of.3D.vol.10.-.12.GERMA...
Die.Biene.Maja.2.Die.Honigsp...
Sharknado.6.The.Last.One.3D....
Solo.A.Star.Wars.Story.3D.20...
Solo.A.Star.Wars.Story.3D.20...
Die.Biene.Maja.2.Die.Honigsp...
Avengers.Infinity.War.3D.201...

Old_Stuff
Species.IV.Das.Erwachen.2007...
Species.IV.Das.Erwachen.2007...
Hotel.Transsilvanien.2012.Ge...
The.Dead.2010.German.DL.1080...
The.Dead.2.India.2013.German...
Britney.Spears.Live.The.Femm...
Buffy.The.Vampire.Slayer.199...
IMAX.Ride.Around.The.World.2...
Schimanski.-.Duisburg.Ruhror...
Akte.X.S02.German.DTS.DL.108...
How.I.Met.Your.Mother.S02.Ge...
Akte.X.S01.German.DTS.DL.108...
Den.Himmel.gibts.echt.DL.108...
Vikings.S02.German.DL.1080p....
Be.Kind.Rewind.Abgedreht.200...

Filme
Dirty.Grandpa.2016.German.AC...
2001.Odyssee.im.Weltraum.196...
Mein.Partner.mit.der.kalten....
Die.Letzte.Festung.aka.The.L...
Blind.Dating.2006.German.AC3...
Und.taeglich.gruesst.das.Mur...
Verwuenscht.2007.German.AC3....
The.Manchu.Eagle.Murder.Cape...
The.Man.with.the.Iron.Fists....
The.Man.with.the.Iron.Fists....
El.Perdido.1961.German.DL.10...
El.Padrino.2004..German.AC3....
Carrie.2002.German.AC3D.DL.1...
Die.unvergessliche.Weihnacht...
The.Big.Lebowski.1998.Gernan...
Source.Code.2011.German.Dubb...
Entourage.2015.German.AC3D.D...
The.Magic.Piano.2011.German....
The.Loved.Ones.2009.German.D...
Transit.2018.German.1080p.Bl...
Vielmachglas.2018.German.108...
Mulholland.Drive.2001.German...
Trans.Amerika.Express.1976.G...
Mein.Partner.mit.der.kalten....

 
 
The.Art.of.the.Steal.Der.Kunstraub.2013.German.AC3.DL.1080p.BluRay.x265-FuN

Jahr: 2013
Genre: Komödie, Krimi
Sprache: Deutsch AC3 | Englisch AC3
Laufzeit: 1h 30mn
Bitrate: 3 233 Kbps
Format: MKV
Größe: 2.04 GiB
Release:

Beschreibung:

Crunch Calhoun ist ein in die Jahre gekommener Motorad-Profi, der nicht nur mit lebensmüden Stunteinlagen vor besoffenen Jahrmarktsbesuchern Tag ein Tag aus seinen Hals riskiert, sondern diesen eines Nachts auch bricht. Einbandagiert und frustriert über die Erfolg- und Sinnlosigkeit seines Lebens, beschließt Crunch zusammen mit seinem verlotterten Protegé Francie und seiner ehemaligen Stuntassistentin - der schwarzhaarigen Provinzschönheit Lola - zu seinem alten Handwerk zurückzukehren: dem professionellen Klauen. Mit der Unterstützung seines ideenreichen Halbbruders Nicky, des Fälschers Guy und anderen anrüchigen Leuten macht er sich an einen der hoffentlich größten Kunstraube der Geschichte. Alles, was ihm und seinem Team den Diebstahl der berühmten Gutenbergbibel jetzt noch verhageln mag, ist Agent Bick sowie dessen komplette Behörde ...




Format                                   : Matroska
Format version                           : Version 4 / Version 2
File size                                : 2.04 GiB
Duration                                 : 1h 30mn
Overall bit rate                         : 3 233 Kbps
Movie name                               : The.Art.of.the.Steal.Der.Kunstraub.2013.German.DTS-HD.DL.1080p.BluRay.AVC.Remux-HQX
Encoded date                             : UTC 2018-10-13 16:49:18
Writing application                      : mkvmerge v20.0.0 ('I Am The Sun') 64-bit
Writing library                          : libebml v1.3.5 + libmatroska v1.4.8
DURATION                                 : 01:29:26.600000000
NUMBER_OF_FRAMES                         : 1422
NUMBER_OF_BYTES                          : 8209505
_STATISTICS_WRITING_APP                  : mkvmerge v20.0.0 ('I Am The Sun') 64-bit
_STATISTICS_WRITING_DATE_UTC             : 2018-10-13 16:49:18
_STATISTICS_TAGS                         : BPS DURATION NUMBER_OF_FRAMES NUMBER_OF_BYTES

Video
ID                                       : 1
Format                                   : HEVC
Format/Info                              : High Efficiency Video Coding
Format profile                           : Main@L4.0
Codec ID                                 : V_MPEGH/ISO/HEVC
Duration                                 : 1h 30mn
Bit rate                                 : 2 400 Kbps
Width                                    : 1 920 pixels
Height                                   : 800 pixels
Display aspect ratio                     : 2.40:1
Frame rate mode                          : Constant
Frame rate                               : 23.976 fps
Color space                              : YUV
Chroma subsampling                       : 4:2:0
Bit depth                                : 8 bits
Bits/(Pixel*Frame)                       : 0.065
Stream size                              : 1.51 GiB (74%)
Writing library                          : x265 2.6:[Windows][GCC 7.3.0][64 bit] 8bit+10bit+12bit
Encoding settings                        : cpuid=1173503 / frame-threads=3 / numa-pools=8 / wpp / no-pmode / no-pme / no-psnr / no-ssim / log-level=2 / input-csp=1 / input-res=1920x800 / interlace=0 / total-frames=0 / level-idc=0 / high-tier=1 / uhd-bd=0 / ref=3 / no-allow-non-conformance / no-repeat-headers / annexb / no-aud / no-hrd / info / hash=0 / no-temporal-layers / open-gop / min-keyint=24 / keyint=240 / bframes=4 / b-adapt=0 / b-pyramid / bframe-bias=0 / rc-lookahead=15 / lookahead-slices=5 / scenecut=40 / no-intra-refresh / ctu=64 / min-cu-size=8 / no-rect / no-amp / max-tu-size=32 / tu-inter-depth=1 / tu-intra-depth=1 / limit-tu=0 / rdoq-level=0 / dynamic-rd=0.00 / no-ssim-rd / signhide / no-tskip / nr-intra=0 / nr-inter=0 / no-constrained-intra / no-strong-intra-smoothing / max-merge=2 / limit-refs=3 / no-limit-modes / me=1 / subme=2 / merange=57 / temporal-mvp / weightp / no-weightb / no-analyze-src-pics / deblock=0:0 / no-sao / no-sao-non-deblock / rd=2 / no-early-skip / rskip / fast-intra / no-tskip-fast / no-cu-lossless / no-b-intra / no-splitrd-skip / rdpenalty=0 / psy-rd=2.00 / psy-rdoq=0.00 / no-rd-refine / analysis-reuse-mode=0 / no-lossless / cbqpoffs=0 / crqpoffs=0 / rc=crf / crf=18.0 / qcomp=0.60 / qpstep=4 / stats-write=0 / stats-read=0 / ipratio=1.40 / pbratio=1.30 / aq-mode=1 / aq-strength=1.00 / cutree / zone-count=0 / no-strict-cbr / qg-size=32 / no-rc-grain / qpmax=69 / qpmin=0 / no-const-vbv / sar=1 / overscan=0 / videoformat=5 / range=0 / colorprim=1 / transfer=1 / colormatrix=1 / chromaloc=0 / display-window=0 / max-cll=0,0 / min-luma=0 / max-luma=255 / log2-max-poc-lsb=8 / vui-timing-info / vui-hrd-info / slices=1 / no-opt-qp-pps / no-opt-ref-list-length-pps / no-multi-pass-opt-rps / scenecut-bias=0.05 / no-opt-cu-delta-qp / no-aq-motion / no-hdr / no-hdr-opt / no-dhdr10-opt / analysis-reuse-level=5 / scale-factor=0 / refine-intra=0 / refine-inter=0 / refine-mv=0 / no-limit-sao / ctu-info=0 / no-lowpass-dct / refine-mv-type=0 / copy-pic=1
Default                                  : Yes
Forced                                   : No
DURATION                                 : 01:30:09.404000000
NUMBER_OF_FRAMES                         : 129696
NUMBER_OF_BYTES                          : 1654822378
_STATISTICS_WRITING_APP                  : mkvmerge v20.0.0 ('I Am The Sun') 64-bit
_STATISTICS_WRITING_DATE_UTC             : 2018-10-13 16:49:18
_STATISTICS_TAGS                         : BPS DURATION NUMBER_OF_FRAMES NUMBER_OF_BYTES

Audio #1
ID                                       : 2
Format                                   : AC-3
Format/Info                              : Audio Coding 3
Mode extension                           : CM (complete main)
Format settings, Endianness              : Big
Codec ID                                 : A_AC3
Duration                                 : 1h 30mn
Bit rate mode                            : Constant
Bit rate                                 : 384 Kbps
Channel(s)                               : 6 channels
Channel positions                        : Front: L C R, Side: L R, LFE
Sampling rate                            : 48.0 KHz
Bit depth                                : 16 bits
Compression mode                         : Lossy
Stream size                              : 248 MiB (12%)
Title                                    : Surround
Language                                 : German
Default                                  : Yes
Forced                                   : No
DURATION                                 : 01:30:09.376000000
NUMBER_OF_FRAMES                         : 169043
NUMBER_OF_BYTES                          : 259650048
_STATISTICS_WRITING_APP                  : mkvmerge v20.0.0 ('I Am The Sun') 64-bit
_STATISTICS_WRITING_DATE_UTC             : 2018-10-13 16:49:18
_STATISTICS_TAGS                         : BPS DURATION NUMBER_OF_FRAMES NUMBER_OF_BYTES

Audio #2
ID                                       : 3
Format                                   : AC-3
Format/Info                              : Audio Coding 3
Mode extension                           : CM (complete main)
Format settings, Endianness              : Big
Codec ID                                 : A_AC3
Duration                                 : 1h 30mn
Bit rate mode                            : Constant
Bit rate                                 : 384 Kbps
Channel(s)                               : 6 channels
Channel positions                        : Front: L C R, Side: L R, LFE
Sampling rate                            : 48.0 KHz
Bit depth                                : 16 bits
Compression mode                         : Lossy
Stream size                              : 248 MiB (12%)
Title                                    : Surround
Language                                 : English
Default                                  : No
Forced                                   : No
DURATION                                 : 01:30:09.408000000
NUMBER_OF_FRAMES                         : 169044
NUMBER_OF_BYTES                          : 259651584
_STATISTICS_WRITING_APP                  : mkvmerge v20.0.0 ('I Am The Sun') 64-bit
_STATISTICS_WRITING_DATE_UTC             : 2018-10-13 16:49:18
_STATISTICS_TAGS                         : BPS DURATION NUMBER_OF_FRAMES NUMBER_OF_BYTES



Download:
Share Online Share OnlineShare OnlineShare Online
 

Kommentare