Filecrypt zeigt vereinzelt Files als "n/a". Die Downloads sind trotzdem komplett.

DNS SERVER AENDERNum der staatlichen Zensur zu umgehen. Sollten wir von eurem Provider geseprrt werden, nutzt den TOR BROWSER oder ändert euren DNS SERVER.

Filmwünsche können bei uns im Forum abgegeben werden

Wir Speichern Nicht




 
 
 
Top Releases
Ploetzlich.Santa.2016.German...
The.Art.of.the.Steal.Der.Kun...
Luis.und.die.Aliens.2018.DUA...
Prinz.Charming.2018.COMPLETE...
Santa.und.Co.Wer.rettet.Weih...
Die.Unglaublichen.2.2018.Ger...
Santa.und.Co.Wer.rettet.Weih...
Brawl.in.Cell.Block.99.2017....
Prinz.Charming.2018.GERMAN.D...
Running.Wild.2017.MULTi.COMP...

Cinedubs
Christopher.Robin.2018.GERMA...
Christopher.Robin.2018.GERMA...
Die.unglaubliche.Reise.des.F...
Die.unglaubliche.Reise.des.F...
BlacKkKlansman.2018.GERMAN.D...
BlacKkKlansman.2018.GERMAN.D...
Mile.22.2018.German.AC3MD.DL...
Mile.22.2018.German.AC3MD.DL...
Die.Unglaublichen.2.German.D...
Die.Unglaublichen.2.German.D...

Neuerscheinungen 2017-18
Halloween.Night.Satan.lebt.H...
Beyond.Re-Animator.2003.MULT...
Das.Urteil.von.Nuernberg.Jud...
The.Dinner.2017.German.AC3.D...
Tsunambee.The.Wrath.Cometh.2...
Tsunambee.The.Wrath.Cometh.2...
Shock.und.Awe.Krieg.der.Lueg...
Der.Meisterdieb.und.seine.Sc...
Private.Lessons.1981.MULTi.C...
Running.Wild.Der.Preis.der.F...

XXX
FTVGirls.18.10.16.Sophia.Pos...
Fitting-Room.18.10.15.Ariel....
FAKings.18.10.08.Merce.SPANI...
FinishHim.18.10.06.Ivy.Secre...
Family.18.10.17.Gia.Derza.An...
FakehubOriginals.18.10.13.Al...
EvilAngel.18.10.12.Lisa.Ann....
EvilAngel.Sloppy.Anal.Sluts....
FAKings.18.10.12.Inna.Teen.S...
FakeTaxi.18.10.14.Lindsey.Cr...
ATKGirlfriends.18.10.17.Mega...
EvilAngel.Choked.And.Soaked....
FakeHostel.18.10.13.Katy.Ros...
FakeDrivingSchool.18.10.15.R...
EvilAngel.Sloppy.Anal.Sluts....
DogHouseDigital.18.10.18.Tin...
FakeTaxi.18.10.17.Tory.Candi...
EroticDesire.18.10.13.Mikki....
FamilyLust.18.10.12.Ashlynn....
DogHouseDigital.18.10.14.Kat...

3D
Deep.Kleine.Helden.der.Tiefs...
Deep.3D.2017.MULTI.COMPLETE....
Detective.Dee.und.die.Legend...
Detective.Dee.und.die.Legend...
Skyscraper.3D.German.DL.AC3....
Ant-Man.and.the.Wasp.2018.3D...
Jurassic.World.Das.gefallene...
Jurassic.World.Das.gefallene...
Best.of.3D.vol.10.-.12.GERMA...
Die.Biene.Maja.2.Die.Honigsp...
Sharknado.6.The.Last.One.3D....
Solo.A.Star.Wars.Story.3D.20...
Solo.A.Star.Wars.Story.3D.20...
Die.Biene.Maja.2.Die.Honigsp...
Avengers.Infinity.War.3D.201...

Old_Stuff
Species.IV.Das.Erwachen.2007...
Species.IV.Das.Erwachen.2007...
Hotel.Transsilvanien.2012.Ge...
The.Dead.2010.German.DL.1080...
The.Dead.2.India.2013.German...
Britney.Spears.Live.The.Femm...
Buffy.The.Vampire.Slayer.199...
IMAX.Ride.Around.The.World.2...
Schimanski.-.Duisburg.Ruhror...
Akte.X.S02.German.DTS.DL.108...
How.I.Met.Your.Mother.S02.Ge...
Akte.X.S01.German.DTS.DL.108...
Den.Himmel.gibts.echt.DL.108...
Vikings.S02.German.DL.1080p....
Be.Kind.Rewind.Abgedreht.200...

Filme
Collide.2016.German.AC3.DL.1...
Menschen.ohne.Seele.1950.Ger...
Triple.Trouble.1984.German.D...
Killer.by.Nature.2010.MULTi....
Criminal.Minds.S13.GERMAN.DU...
Das.Vermaechtnis.der.Tempelr...
Ein.Fleck.in.der.Sonne.1961....
Der.toedliche.Schwarm.aka.Th...
Beyond.the.Sea.-.Musik.war.s...
Das.Vermaechtnis.des.geheime...
The.Magicians.S03.COMPLETE.G...
The.Originals.S05.GERMAN.720...
Mein.Partner.mit.der.kalten....
Anatomie.einer.Entfuehrung.2...
Babylon.Berlin.S02D01.GERMAN...
Space.Battleship.Yamato.2010...
Dirty.Grandpa.2016.German.AC...
2001.Odyssee.im.Weltraum.196...
Mein.Partner.mit.der.kalten....
Die.Letzte.Festung.aka.The.L...
Blind.Dating.2006.German.AC3...
Und.taeglich.gruesst.das.Mur...
Verwuenscht.2007.German.AC3....
The.Manchu.Eagle.Murder.Cape...

 
 
Collide.2016.German.AC3.DL.1080p.BluRay.x265-FuN

Jahr: 2016
Genre: Action, Thriller
Sprache: Deutsch AC3 | Englisch AC3
Laufzeit: 1h 39mn
Bitrate: 4 158 Kbps
Format: MKV
Größe: 2.89 GiB
Release:

Beschreibung:

Der amerikanische Backpacker-Tourist Casey verbringt zusammen mit seiner Freundin Juliette Zeit in Deutschland. Doch durch die Verkettung unglücklicher Umstände braucht Juliette eine Nierentransplantation und um das nötige Geld zusammenzubekommen, besinnt Casey sich auf seine kriminelle Vergangenheit als Autodieb und lässt sich von Geran anheuern. Der geplante Raubzug läuft allerdings nicht so wie geplant. Casey trifft unvermutet auf den Gangsterboss Hagen Kahl, der ihn nun seinerseits erpressen will, und so findet Casey sich bald mit Bleifuß auf der deutschen Autobahn bei München wieder, um seine Freundin zu retten. Eine Hetzjagd um sein und ihr Leben beginnt.




Format                                   : Matroska
Format version                           : Version 4 / Version 2
File size                                : 2.89 GiB
Duration                                 : 1h 39mn
Overall bit rate                         : 4 158 Kbps
Encoded date                             : UTC 2018-10-25 07:05:26
Writing application                      : mkvmerge v10.0.0 ('To Drown In You') 64bit
Writing library                          : libebml v1.3.4 + libmatroska v1.4.5

Video
ID                                       : 1
Format                                   : HEVC
Format/Info                              : High Efficiency Video Coding
Format profile                           : Main@L4.0
Codec ID                                 : V_MPEGH/ISO/HEVC
Duration                                 : 1h 39mn
Bit rate                                 : 3 307 Kbps
Width                                    : 1 920 pixels
Height                                   : 800 pixels
Display aspect ratio                     : 2.40:1
Frame rate mode                          : Constant
Frame rate                               : 24.000 fps
Color space                              : YUV
Chroma subsampling                       : 4:2:0
Bit depth                                : 8 bits
Bits/(Pixel*Frame)                       : 0.090
Stream size                              : 2.30 GiB (80%)
Writing library                          : x265 2.8:[Windows][GCC 7.1.0][64 bit] 8bit+10bit+12bit
Encoding settings                        : cpuid=1111039 / frame-threads=3 / numa-pools=8 / wpp / no-pmode / no-pme / no-psnr / no-ssim / log-level=2 / input-csp=1 / input-res=1920x800 / interlace=0 / total-frames=0 / level-idc=0 / high-tier=1 / uhd-bd=0 / ref=3 / no-allow-non-conformance / no-repeat-headers / annexb / no-aud / no-hrd / info / hash=0 / no-temporal-layers / open-gop / min-keyint=24 / keyint=240 / gop-lookahead=0 / bframes=4 / b-adapt=2 / b-pyramid / bframe-bias=0 / rc-lookahead=20 / lookahead-slices=5 / scenecut=40 / radl=0 / no-intra-refresh / ctu=64 / min-cu-size=8 / no-rect / no-amp / max-tu-size=32 / tu-inter-depth=1 / tu-intra-depth=1 / limit-tu=0 / rdoq-level=0 / dynamic-rd=0.00 / no-ssim-rd / signhide / no-tskip / nr-intra=0 / nr-inter=0 / no-constrained-intra / no-strong-intra-smoothing / max-merge=2 / limit-refs=3 / no-limit-modes / me=1 / subme=2 / merange=57 / temporal-mvp / weightp / no-weightb / no-analyze-src-pics / deblock=0:0 / no-sao / no-sao-non-deblock / rd=3 / no-early-skip / rskip / no-fast-intra / no-tskip-fast / no-cu-lossless / no-b-intra / no-splitrd-skip / rdpenalty=0 / psy-rd=2.00 / psy-rdoq=0.00 / no-rd-refine / no-lossless / cbqpoffs=0 / crqpoffs=0 / rc=crf / crf=20.0 / qcomp=0.60 / qpstep=4 / stats-write=0 / stats-read=0 / ipratio=1.40 / pbratio=1.30 / aq-mode=1 / aq-strength=1.00 / cutree / zone-count=0 / no-strict-cbr / qg-size=32 / no-rc-grain / qpmax=69 / qpmin=0 / no-const-vbv / sar=1 / overscan=0 / videoformat=5 / range=0 / colorprim=1 / transfer=1 / colormatrix=1 / chromaloc=0 / display-window=0 / max-cll=0,0 / min-luma=0 / max-luma=255 / log2-max-poc-lsb=8 / vui-timing-info / vui-hrd-info / slices=1 / no-opt-qp-pps / no-opt-ref-list-length-pps / no-multi-pass-opt-rps / scenecut-bias=0.05 / no-opt-cu-delta-qp / no-aq-motion / no-hdr / no-hdr-opt / no-dhdr10-opt / no-idr-recovery-sei / analysis-reuse-level=5 / scale-factor=0 / refine-intra=0 / refine-inter=0 / refine-mv=0 / no-limit-sao / ctu-info=0 / no-lowpass-dct / refine-mv-type=0 / copy-pic=1 / max-ausize-factor=1.0 / no-dynamic-refine / no-single-sei
Default                                  : Yes
Forced                                   : No
DURATION                                 : 01:39:22.250000000
NUMBER_OF_FRAMES                         : 143094
NUMBER_OF_BYTES                          : 2520409510
_STATISTICS_WRITING_APP                  : mkvmerge v10.0.0 ('To Drown In You') 64bit
_STATISTICS_WRITING_DATE_UTC             : 2018-10-25 07:05:26
_STATISTICS_TAGS                         : BPS DURATION NUMBER_OF_FRAMES NUMBER_OF_BYTES

Audio #1
ID                                       : 2
Format                                   : AC-3
Format/Info                              : Audio Coding 3
Mode extension                           : CM (complete main)
Format settings, Endianness              : Big
Codec ID                                 : A_AC3
Duration                                 : 1h 39mn
Bit rate mode                            : Constant
Bit rate                                 : 384 Kbps
Channel(s)                               : 6 channels
Channel positions                        : Front: L C R, Side: L R, LFE
Sampling rate                            : 48.0 KHz
Bit depth                                : 16 bits
Compression mode                         : Lossy
Delay relative to video                  : -5ms
Stream size                              : 273 MiB (9%)
Title                                    : Surround
Language                                 : German
Default                                  : Yes
Forced                                   : No
DURATION                                 : 01:39:22.240000000
NUMBER_OF_FRAMES                         : 186320
NUMBER_OF_BYTES                          : 286187520
_STATISTICS_WRITING_APP                  : mkvmerge v10.0.0 ('To Drown In You') 64bit
_STATISTICS_WRITING_DATE_UTC             : 2018-10-25 07:05:26
_STATISTICS_TAGS                         : BPS DURATION NUMBER_OF_FRAMES NUMBER_OF_BYTES

Audio #2
ID                                       : 3
Format                                   : AC-3
Format/Info                              : Audio Coding 3
Mode extension                           : CM (complete main)
Format settings, Endianness              : Big
Codec ID                                 : A_AC3
Duration                                 : 1h 39mn
Bit rate mode                            : Constant
Bit rate                                 : 384 Kbps
Channel(s)                               : 6 channels
Channel positions                        : Front: L C R, Side: L R, LFE
Sampling rate                            : 48.0 KHz
Bit depth                                : 16 bits
Compression mode                         : Lossy
Delay relative to video                  : -5ms
Stream size                              : 273 MiB (9%)
Title                                    : Surround
Language                                 : English
Default                                  : No
Forced                                   : No
DURATION                                 : 01:39:22.240000000
NUMBER_OF_FRAMES                         : 186320
NUMBER_OF_BYTES                          : 286187520
_STATISTICS_WRITING_APP                  : mkvmerge v10.0.0 ('To Drown In You') 64bit
_STATISTICS_WRITING_DATE_UTC             : 2018-10-25 07:05:26
_STATISTICS_TAGS                         : BPS DURATION NUMBER_OF_FRAMES NUMBER_OF_BYTES



Download:
Share Online Share OnlineShare OnlineShare Online
 

Kommentare