Normalna Jakość | SSNI289C | dj kusuka jamilahIp Man 2: Legend Of The Grandmaster | Film-Noir | The Crossing
 


 

Filecrypt zeigt vereinzelt Files als "n/a". Die Downloads sind trotzdem komplett.

DNS SERVER AENDERNum der staatlichen Zensur zu umgehen. Sollten wir von eurem Provider geseprrt werden, nutzt den TOR BROWSER oder ändert euren DNS SERVER.

Filmwünsche können bei uns im Forum abgegeben werden

Wir Speichern Nicht




 
 
 
Top Releases
Santa.und.Co.Wer.rettet.Weih...
Die.Unglaublichen.2.2018.Ger...
Santa.und.Co.Wer.rettet.Weih...
Brawl.in.Cell.Block.99.2017....
Prinz.Charming.2018.GERMAN.D...
Running.Wild.2017.MULTi.COMP...
The.Night.Comes.for.Us.2018....
Mamma.Mia.Here.We.Go.Again.2...
Das.Schicksal.ist.ein.mieser...
Prinz.Charming.2018.GERMAN.7...

Cinedubs
Christopher.Robin.2018.GERMA...
Christopher.Robin.2018.GERMA...
Die.unglaubliche.Reise.des.F...
Die.unglaubliche.Reise.des.F...
BlacKkKlansman.2018.GERMAN.D...
BlacKkKlansman.2018.GERMAN.D...
Mile.22.2018.German.AC3MD.DL...
Mile.22.2018.German.AC3MD.DL...
Die.Unglaublichen.2.German.D...
Die.Unglaublichen.2.German.D...

Neuerscheinungen 2017-18
Tsunambee.The.Wrath.Cometh.2...
Tsunambee.The.Wrath.Cometh.2...
Shock.und.Awe.Krieg.der.Lueg...
Der.Meisterdieb.und.seine.Sc...
Private.Lessons.1981.MULTi.C...
Running.Wild.Der.Preis.der.F...
Running.Wild.Der.Preis.der.F...
Der.Geschmack.von.Leben.2017...
Tsunambee.Angriff.der.Zombie...
Der.Kung.Fu-Fighter.von.Chin...

XXX
DigitalDesire.18.10.12.Heath...
DigitalPlayground.18.10.15.C...
Deep.Teen.Throat.3.XXX.1080p...
Darkside.18.01.26.Creampies....
DeepThroatSirens.18.10.12.Kl...
DayleneRio.18.08.01.Dangerou...
ATKGirlfriends.18.10.16.Vina...
DigitalPlayground.18.10.17.K...
DevilsFilm.Horny.Old.Men.XXX...
DayleneRio.18.07.18.Hooked.O...
DirtyMasseur.18.10.13.Vienna...
DevilsFilm.18.10.14.Scarlett...
DayleneRio.18.06.20.When.I.W...
DayleneRio.18.07.04.Breastfe...
Darkside.18.02.09.Alien.Foxx...
CzechHunter.18.10.10.E375.XX...
DigitalDesire.18.10.03.Kylie...
DaddysLilAngel.18.10.18.Emil...
DevilsFilm.18.10.13.Taylor.P...
DeepThroatSirens.18.10.04.Ma...

3D
Deep.Kleine.Helden.der.Tiefs...
Deep.3D.2017.MULTI.COMPLETE....
Detective.Dee.und.die.Legend...
Detective.Dee.und.die.Legend...
Skyscraper.3D.German.DL.AC3....
Ant-Man.and.the.Wasp.2018.3D...
Jurassic.World.Das.gefallene...
Jurassic.World.Das.gefallene...
Best.of.3D.vol.10.-.12.GERMA...
Die.Biene.Maja.2.Die.Honigsp...
Sharknado.6.The.Last.One.3D....
Solo.A.Star.Wars.Story.3D.20...
Solo.A.Star.Wars.Story.3D.20...
Die.Biene.Maja.2.Die.Honigsp...
Avengers.Infinity.War.3D.201...

Old_Stuff
Species.IV.Das.Erwachen.2007...
Species.IV.Das.Erwachen.2007...
Hotel.Transsilvanien.2012.Ge...
The.Dead.2010.German.DL.1080...
The.Dead.2.India.2013.German...
Britney.Spears.Live.The.Femm...
Buffy.The.Vampire.Slayer.199...
IMAX.Ride.Around.The.World.2...
Schimanski.-.Duisburg.Ruhror...
Akte.X.S02.German.DTS.DL.108...
How.I.Met.Your.Mother.S02.Ge...
Akte.X.S01.German.DTS.DL.108...
Den.Himmel.gibts.echt.DL.108...
Vikings.S02.German.DL.1080p....
Be.Kind.Rewind.Abgedreht.200...

Filme
Die.Letzte.Festung.aka.The.L...
Blind.Dating.2006.German.AC3...
Und.taeglich.gruesst.das.Mur...
Verwuenscht.2007.German.AC3....
The.Darkest.Minds.Die.Ueberl...
The.Manchu.Eagle.Murder.Cape...
The.Man.with.the.Iron.Fists....
The.Man.with.the.Iron.Fists....
El.Perdido.1961.German.DL.10...
El.Padrino.2004..German.AC3....
Carrie.2002.German.AC3D.DL.1...
Die.unvergessliche.Weihnacht...
The.Big.Lebowski.1998.Gernan...
Source.Code.2011.German.Dubb...
Entourage.2015.German.AC3D.D...
The.Magic.Piano.2011.German....
The.Loved.Ones.2009.German.D...
Transit.2018.German.1080p.Bl...
Vielmachglas.2018.German.108...
Mulholland.Drive.2001.German...
Trans.Amerika.Express.1976.G...
Mein.Partner.mit.der.kalten....
MotoGP.Moto2.Moto3.Saison.20...
MotoGP.Moto2.Moto3.Saison.20...

 
 
The.Man.with.the.Iron.Fists.2.2015.German.DL.1080p.BluRay.x264-ENCOUNTERS

Jahr: 2015
Genre: Action
Sprache: Deutsch DTS | Englisch DTS
Laufzeit: 1h 30mn
Bitrate: 13.0 Mbps
Format: MKV
Größe: 8.19 GiB
Release:

Beschreibung:

In einem provinziellen chinesischen Weiler im 19. Jahrhundert führt der sinistre Meister Ho mit seinem schwerbewaffneten Clan von Kampfsportlern ein Schreckensregiment und zwingt die Dorfbewohner, in einer Mine Silber für ihn abzubauen. Außerdem treibt noch ein mysteriöses Ungeheuer sein Unwesen in der Gegend und saugt jungen Mädchen die Lebenskraft aus. Da treibt der Fluss den verletzten amerikanischen Ex-Sklaven Thaddeus daher. Die guten Einwohner pflegen ihn gesund, und Thaddeus organisiert einen Aufstand.



Complete name                            : encounters-thmawithirfi2_1080p.mkv
Format                                   : Matroska
Format version                           : Version 4 / Version 2
File size                                : 8.19 GiB
Duration                                 : 1h 30mn
Overall bit rate                         : 13.0 Mbps
Encoded date                             : UTC 2015-05-23 09:51:56
Writing application                      : mkvmerge v7.1.0 ('Good Love') 64bit built on Jul 27 2014 13:06:55
Writing library                          : libebml v1.3.0 + libmatroska v1.4.1
DURATION                                 : 01:20:39.293000000
NUMBER_OF_FRAMES                         : 2
NUMBER_OF_BYTES                          : 34
_STATISTICS_WRITING_APP                  : mkvmerge v7.1.0 ('Good Love') 64bit built on Jul 27 2014 13:06:55
_STATISTICS_WRITING_DATE_UTC             : 2015-05-23 09:51:56
_STATISTICS_TAGS                         : BPS DURATION NUMBER_OF_FRAMES NUMBER_OF_BYTES

Video
ID                                       : 1
Format                                   : AVC
Format/Info                              : Advanced Video Codec
Format profile                           : High@L4.1
Format settings, CABAC                   : Yes
Format settings, ReFrames                : 4 frames
Codec ID                                 : V_MPEG4/ISO/AVC
Duration                                 : 1h 30mn
Bit rate                                 : 10.4 Mbps
Width                                    : 1 920 pixels
Height                                   : 1 080 pixels
Display aspect ratio                     : 16:9
Frame rate mode                          : Constant
Frame rate                               : 23.976 fps
Color space                              : YUV
Chroma subsampling                       : 4:2:0
Bit depth                                : 8 bits
Scan type                                : Progressive
Bits/(Pixel*Frame)                       : 0.210
Stream size                              : 6.59 GiB (80%)
Title                                    : encounters-thmawithirfi2_1080p
Writing library                          : x264 core 144 r2525 40bb568
Encoding settings                        : cabac=1 / ref=4 / deblock=1:-1:-1 / analyse=0x3:0x133 / me=umh / subme=7 / psy=1 / psy_rd=1.00:0.15 / mixed_ref=1 / me_range=16 / chroma_me=1 / trellis=1 / 8x8dct=1 / cqm=0 / deadzone=21,11 / fast_pskip=0 / chroma_qp_offset=-3 / threads=12 / lookahead_threads=2 / sliced_threads=0 / nr=0 / decimate=1 / interlaced=0 / bluray_compat=0 / constrained_intra=0 / bframes=3 / b_pyramid=2 / b_adapt=1 / b_bias=0 / direct=1 / weightb=1 / open_gop=0 / weightp=2 / keyint=250 / keyint_min=23 / scenecut=40 / intra_refresh=0 / rc_lookahead=40 / rc=crf / mbtree=1 / crf=20.0 / qcomp=0.60 / qpmin=0 / qpmax=69 / qpstep=4 / ip_ratio=1.40 / aq=1:1.00
Default                                  : Yes
Forced                                   : No

Audio #1
ID                                       : 2
Format                                   : DTS
Format/Info                              : Digital Theater Systems
Mode                                     : 16
Format settings, Endianness              : Big
Codec ID                                 : A_DTS
Duration                                 : 1h 30mn
Bit rate mode                            : Constant
Bit rate                                 : 768 Kbps
Channel(s)                               : 6 channels
Channel positions                        : Front: L C R, Side: L R, LFE
Sampling rate                            : 48.0 KHz
Bit depth                                : 24 bits
Compression mode                         : Lossy
Stream size                              : 497 MiB (6%)
Title                                    : DTS-755 Kbps
Language                                 : German
Default                                  : Yes
Forced                                   : No

Audio #2
ID                                       : 3
Format                                   : DTS
Format/Info                              : Digital Theater Systems
Mode                                     : 16
Format settings, Endianness              : Big
Codec ID                                 : A_DTS
Duration                                 : 1h 30mn
Bit rate mode                            : Constant
Bit rate                                 : 1 509 Kbps
Channel(s)                               : 6 channels
Channel positions                        : Front: L C R, Side: L R, LFE
Sampling rate                            : 48.0 KHz
Bit depth                                : 24 bits
Compression mode                         : Lossy
Stream size                              : 976 MiB (12%)
Title                                    : DTS-1 510 Kbps
Language                                 : English
Default                                  : No
Forced                                   : No


Download:
Share Online Share OnlineShare OnlineShare Online
 

Kommentare