Спорт | Dragon (2011) | Eni Sagita - Sakit Hati (Tipe-X) KoploMajor S6 Subtitle Indonesia | Doce Tentação | The Banner Saga 2 [v 2.58.02] (2016) PC | Лицензия
 


 

Filecrypt zeigt vereinzelt Files als "n/a". Die Downloads sind trotzdem komplett.

DNS SERVER AENDERNum der staatlichen Zensur zu umgehen. Sollten wir von eurem Provider geseprrt werden, nutzt den TOR BROWSER oder ändert euren DNS SERVER.

Filmwünsche können bei uns im Forum abgegeben werden

Wir Speichern Nicht




 
 
 
Top Releases
Paterson.2016.German.AC3.108...
Lion.Der.lange.Weg.nach.Haus...
Luis.und.die.Aliens.German.D...
Luis.und.die.Aliens.German.D...
Der.Butler.2013.German.AC3.D...
Ploetzlich.Santa.2016.German...
The.Art.of.the.Steal.Der.Kun...
Luis.und.die.Aliens.2018.DUA...
Prinz.Charming.2018.COMPLETE...
Santa.und.Co.Wer.rettet.Weih...

Cinedubs
Christopher.Robin.2018.GERMA...
Christopher.Robin.2018.GERMA...
Die.unglaubliche.Reise.des.F...
Die.unglaubliche.Reise.des.F...
BlacKkKlansman.2018.GERMAN.D...
BlacKkKlansman.2018.GERMAN.D...
Mile.22.2018.German.AC3MD.DL...
Mile.22.2018.German.AC3MD.DL...
Die.Unglaublichen.2.German.D...
Die.Unglaublichen.2.German.D...

Neuerscheinungen 2017-18
Jefe.Der.Chef.2018.German.72...
Jefe.Der.Chef.2018.German.10...
Been.So.Long.2018.German.DL....
Been.So.Long.2018.German.DL....
Killer.Expendables.2010.Germ...
LEGO.DC.Super.Heroes.Aquaman...
LEGO.DC.Super.Heroes.Aquaman...
Prom.Night.Die.Nacht.des.Sch...
Tsunambee.The.Wrath.Cometh.2...
Illang.The.Wolf.Brigade.2018...

XXX
FTVGirls.18.10.16.Sophia.Pos...
Fitting-Room.18.10.15.Ariel....
FAKings.18.10.08.Merce.SPANI...
FinishHim.18.10.06.Ivy.Secre...
Family.18.10.17.Gia.Derza.An...
FakehubOriginals.18.10.13.Al...
EvilAngel.18.10.12.Lisa.Ann....
EvilAngel.Sloppy.Anal.Sluts....
FAKings.18.10.12.Inna.Teen.S...
FakeTaxi.18.10.14.Lindsey.Cr...
ATKGirlfriends.18.10.17.Mega...
EvilAngel.Choked.And.Soaked....
FakeHostel.18.10.13.Katy.Ros...
FakeDrivingSchool.18.10.15.R...
EvilAngel.Sloppy.Anal.Sluts....
DogHouseDigital.18.10.18.Tin...
FakeTaxi.18.10.17.Tory.Candi...
EroticDesire.18.10.13.Mikki....
FamilyLust.18.10.12.Ashlynn....
DogHouseDigital.18.10.14.Kat...

3D
Deep.Kleine.Helden.der.Tiefs...
Deep.3D.2017.MULTI.COMPLETE....
Detective.Dee.und.die.Legend...
Detective.Dee.und.die.Legend...
Skyscraper.3D.German.DL.AC3....
Ant-Man.and.the.Wasp.2018.3D...
Jurassic.World.Das.gefallene...
Jurassic.World.Das.gefallene...
Best.of.3D.vol.10.-.12.GERMA...
Die.Biene.Maja.2.Die.Honigsp...
Sharknado.6.The.Last.One.3D....
Solo.A.Star.Wars.Story.3D.20...
Solo.A.Star.Wars.Story.3D.20...
Die.Biene.Maja.2.Die.Honigsp...
Avengers.Infinity.War.3D.201...

Old_Stuff
Species.IV.Das.Erwachen.2007...
Species.IV.Das.Erwachen.2007...
Hotel.Transsilvanien.2012.Ge...
The.Dead.2010.German.DL.1080...
The.Dead.2.India.2013.German...
Britney.Spears.Live.The.Femm...
Buffy.The.Vampire.Slayer.199...
IMAX.Ride.Around.The.World.2...
Schimanski.-.Duisburg.Ruhror...
Akte.X.S02.German.DTS.DL.108...
How.I.Met.Your.Mother.S02.Ge...
Akte.X.S01.German.DTS.DL.108...
Den.Himmel.gibts.echt.DL.108...
Vikings.S02.German.DL.1080p....
Be.Kind.Rewind.Abgedreht.200...

Filme
Ab.durch.die.Hecke.2006.Germ...
Killer.Expendables.2010.Germ...
Prom.Night.Die.Nacht.des.Sch...
Patient.Zero.2018.German.720...
Patient.Zero.2018.German.DL....
Mother.2017.German.AC3D.DL.2...
Surf.Nazis.Must.Die.1987.Ger...
Snitch.Ein.riskanter.Deal.20...
Die.letzte.Party.deines.Lebe...
Die.Wikinger.-.The.Vikings.1...
Collide.2016.German.AC3.DL.1...
Menschen.ohne.Seele.1950.Ger...
Triple.Trouble.1984.German.D...
Killer.by.Nature.2010.MULTi....
Criminal.Minds.S13.GERMAN.DU...
Das.Vermaechtnis.der.Tempelr...
Ein.Fleck.in.der.Sonne.1961....
Der.toedliche.Schwarm.aka.Th...
Beyond.the.Sea.-.Musik.war.s...
Das.Vermaechtnis.des.geheime...
The.Magicians.S03.COMPLETE.G...
The.Originals.S05.GERMAN.720...
Mein.Partner.mit.der.kalten....
Anatomie.einer.Entfuehrung.2...

 
 
Prom.Night.Die.Nacht.des.Schlaechters.1980.German.DL.1080p.BluRay.x264-iNKLUSiON

Jahr: 1980
Genre: Horror, Thriller
Sprache: Deutsch DTS | Englisch DTS
Laufzeit: 1h 33mn
Bitrate: 11.7 Mbps
Format: MKV
Größe: 7.65 GiB
Release:

Beschreibung:
Sechs lange Jahre tragen die Hamilton High School-Schüler Kelly (Mary Beth Rubens), Jude (Joy Thompson), Wendy (Anne-Marie Martin) und Nick (Casey Stevens) nun schon ein grausames Geheimnis mit sich herum. Denn nur die Freunde wissen, was vor all den Jahren wirklich mit der 10 Jahre alten Robin Hammond (Tammy Bourne) passiert ist, deren leblosen Körper man damals gefunden hatte. Die Kinder neckten das kleine Mädchen und stichelten gegen sie. Daraufhin bekam sie Angst und wollte sich auf einen Fenstervorsprung retten, von dem sie jedoch letztendlich gefallen ist. Daraufhin beschlossen die damals 12-jährigen Kinder nie wieder über den Vorfall zu sprechen und ihr Geheimnis mit ins Grab zu nehmen. Doch was sie nicht wissen, an dem Tage beobachtete sie noch eine weitere Person und diese rächt sich nun an den Jugendlichen. Ausgerechnet an ihrem Abschlussball müssen die Schüler um ihr Leben fürchten, denn ein Mörder ist unter den Gästen…


Complete name                            : inkl-promnight-1080p.mkv
Format                                   : Matroska
Format version                           : Version 4 / Version 2
File size                                : 7.65 GiB
Duration                                 : 1h 33mn
Overall bit rate                         : 11.7 Mbps
Encoded date                             : UTC 2018-10-27 19:55:35
Writing application                      : mkvmerge v9.0.1 ('Obstacles') 64bit
Writing library                          : libebml v1.3.3 + libmatroska v1.4.4
DURATION                                 : 01:33:57.184000000
NUMBER_OF_FRAMES                         : 528486
NUMBER_OF_BYTES                          : 1063313832
_STATISTICS_WRITING_APP                  : mkvmerge v9.0.1 ('Obstacles') 64bit
_STATISTICS_WRITING_DATE_UTC             : 2018-10-27 19:55:35
_STATISTICS_TAGS                         : BPS DURATION NUMBER_OF_FRAMES NUMBER_OF_BYTES

Video
ID                                       : 1
Format                                   : AVC
Format/Info                              : Advanced Video Codec
Format profile                           : High@L4.1
Format settings, CABAC                   : Yes
Format settings, ReFrames                : 4 frames
Codec ID                                 : V_MPEG4/ISO/AVC
Duration                                 : 1h 33mn
Bit rate                                 : 8 732 Kbps
Width                                    : 1 920 pixels
Height                                   : 1 080 pixels
Display aspect ratio                     : 16:9
Frame rate mode                          : Constant
Frame rate                               : 23.976 fps
Color space                              : YUV
Chroma subsampling                       : 4:2:0
Bit depth                                : 8 bits
Scan type                                : Progressive
Bits/(Pixel*Frame)                       : 0.176
Stream size                              : 5.51 GiB (72%)
Writing library                          : x264 core 155 r2901 7d0ff22
Encoding settings                        : cabac=1 / ref=4 / deblock=1:-1:-1 / analyse=0x3:0x113 / me=umh / subme=7 / psy=1 / psy_rd=1.00:0.00 / mixed_ref=1 / me_range=16 / chroma_me=1 / trellis=1 / 8x8dct=1 / cqm=0 / deadzone=21,11 / fast_pskip=0 / chroma_qp_offset=-2 / threads=12 / lookahead_threads=2 / sliced_threads=0 / nr=0 / decimate=1 / interlaced=0 / bluray_compat=0 / constrained_intra=0 / bframes=3 / b_pyramid=2 / b_adapt=1 / b_bias=0 / direct=3 / weightb=1 / open_gop=0 / weightp=2 / keyint=250 / keyint_min=23 / scenecut=40 / intra_refresh=0 / rc_lookahead=40 / rc=2pass / mbtree=1 / bitrate=8732 / ratetol=1.0 / qcomp=0.60 / qpmin=0 / qpmax=69 / qpstep=4 / cplxblur=20.0 / qblur=0.5 / ip_ratio=1.40 / aq=1:1.00
Default                                  : Yes
Forced                                   : No

Audio #1
ID                                       : 2
Format                                   : DTS
Format/Info                              : Digital Theater Systems
Mode                                     : 16
Format settings, Endianness              : Big
Codec ID                                 : A_DTS
Duration                                 : 1h 33mn
Bit rate mode                            : Constant
Bit rate                                 : 1 509 Kbps
Channel(s)                               : 2 channels
Channel positions                        : Front: L R
Sampling rate                            : 48.0 KHz
Bit depth                                : 24 bits
Compression mode                         : Lossy
Stream size                              : 1 014 MiB (13%)
Language                                 : German
Default                                  : Yes
Forced                                   : No

Audio #2
ID                                       : 3
Format                                   : DTS
Format/Info                              : Digital Theater Systems
Mode                                     : 16
Format settings, Endianness              : Big
Codec ID                                 : A_DTS
Duration                                 : 1h 33mn
Bit rate mode                            : Constant
Bit rate                                 : 1 509 Kbps
Channel(s)                               : 6 channels
Channel positions                        : Front: L C R, Side: L R, LFE
Sampling rate                            : 48.0 KHz
Bit depth                                : 24 bits
Compression mode                         : Lossy
Stream size                              : 1 014 MiB (13%)
Language                                 : English
Default                                  : No
Forced                                   : No


Download:
Share Online Share OnlineShare OnlineShare Online
 

Kommentare