Filecrypt zeigt vereinzelt Files als "n/a". Die Downloads sind trotzdem komplett.

DNS SERVER AENDERNum der staatlichen Zensur zu umgehen. Sollten wir von eurem Provider geseprrt werden, nutzt den TOR BROWSER oder ändert euren DNS SERVER.

Filmwünsche können bei uns im Forum abgegeben werden

Wir Speichern Nicht




 
 
 
Top Releases
Jim.Knopf.und.Lukas.der.Loko...
Jim.Knopf.und.Lukas.der.Loko...
Die.Unglaublichen.2.German.D...
Shirkers.2018.German.DL.Doku...
Shirkers.2018.German.DL.Doku...
The.Equalizer.2.German.DL.AC...
The.Equalizer.2.German.DL.AC...
In.den.Gaengen.German.1080p....
Gun.City.2018.German.720p.WE...
Gun.City.2018.German.1080p.W...

Cinedubs
Der.Affront.2017.GERMAN.AC3....
Der.Affront.2017.GERMAN.AC3....
Meg.German.DL.AC3.Dubbed.108...
Meg.German.DL.AC3.Dubbed.720...
The.Equalizer.2.German.DL.AC...
The.Equalizer.2.German.DL.AC...
The.Nun.German.DL.AC3.Dubbed...
The.Nun.German.DL.AC3.Dubbed...
Christopher.Robin.2018.GERMA...
Christopher.Robin.2018.GERMA...

Neuerscheinungen 2017-18
Das.Phantom.Kommando.DC.1985...
Das.Phantom.Kommando.DC.1985...
Das.Phantom.Kommando.DC.1985...
Bo.und.der.Weihnachtsstern.2...
Bo.und.der.Weihnachtsstern.2...
The Fog 1980.MULTi.COMPLETE....
The.Matrix.Revolutions.2003....
The.Darkest.Minds.2018.COMPL...
The.Fog.Nebel.des.Grauens.19...
The.Fog.Nebel.des.Grauens.19...

XXX
Lesbea.18.10.14.Sasha.Sparro...
LittleCapriceDreams.18.10.08...
MatureNL.18.04.27.Molly.Mara...
LANewGirl.18.09.16.Layla.Sho...
LoneMilf.18.10.15.Olivia.Blu...
LivingWithAPornstar.18.10.15...
Lustery.E141.Maria.And.Zee.R...
LarasPlayground.18.10.12.Cha...
MatureNL.18.04.13.Darcia.Lee...
LANewGirl.18.09.25.Ana.Model...
LANewGirl.18.09.11.Layla.Mod...
MatureNL.18.04.26.Artemia.An...
MassageRooms.18.10.17.Lady.B...
MatureNL.18.04.11.Krista.E.A...
LANewGirl.18.09.29.Ana.Sex.T...
LezBoxx.18.10.12.Violet.Pink...
LANewGirl.18.09.18.Skylar.Mo...
MassageRooms.18.10.13.Anya.K...
Lightbox.Vol.1.XXX.1080p.WEB...
MatureNL.18.04.12.Sissy.Neri...

3D
Deep.Kleine.Helden.der.Tiefs...
Deep.3D.2017.MULTI.COMPLETE....
Detective.Dee.und.die.Legend...
Detective.Dee.und.die.Legend...
Skyscraper.3D.German.DL.AC3....
Ant-Man.and.the.Wasp.2018.3D...
Jurassic.World.Das.gefallene...
Jurassic.World.Das.gefallene...
Best.of.3D.vol.10.-.12.GERMA...
Die.Biene.Maja.2.Die.Honigsp...
Sharknado.6.The.Last.One.3D....
Solo.A.Star.Wars.Story.3D.20...
Solo.A.Star.Wars.Story.3D.20...
Die.Biene.Maja.2.Die.Honigsp...
Avengers.Infinity.War.3D.201...

Old_Stuff
Species.IV.Das.Erwachen.2007...
Species.IV.Das.Erwachen.2007...
Hotel.Transsilvanien.2012.Ge...
The.Dead.2010.German.DL.1080...
The.Dead.2.India.2013.German...
Britney.Spears.Live.The.Femm...
Buffy.The.Vampire.Slayer.199...
IMAX.Ride.Around.The.World.2...
Schimanski.-.Duisburg.Ruhror...
Akte.X.S02.German.DTS.DL.108...
How.I.Met.Your.Mother.S02.Ge...
Akte.X.S01.German.DTS.DL.108...
Den.Himmel.gibts.echt.DL.108...
Vikings.S02.German.DL.1080p....
Be.Kind.Rewind.Abgedreht.200...

Filme
Sie.Leben.1988.German.DL.216...
The.Fog.Nebel.des.Grauens.19...
Modern.Family.S09.GERMAN.DUB...
Modern.Family.S09.GERMAN.DUB...
The.Paperboy.2012.German.DL....
The.Patrol.2013.German.DL.10...
Die.68er.-.Wir.waren.die.Zuk...
Schuften.bis.zum.Umfallen.DH...
Der.zweite.Weltkrieg.Krieg.d...
The.Painter.Dein.Blut.ist.se...
The.Package.Killer.Games.201...
The.Pact.2.Es.ist.noch.nicht...
The.Pact.2012.German.DL.1080...
Maennertag.2016.German.AC3.1...
Jin.Roh.Die.Wolfsbrigade.199...
Die.7.Macht.The.Legend.of.Wi...
Ray.Donovan.S06.GERMAN.DUBBE...
Ray.Donovan.S06.GERMAN.DUBBE...
2001.Odyssee.im.Weltraum.196...
The.Pacific.2010.DISC1.Germa...
The.Pacific.2010.DISC2.Germa...
The.Pacific.2010.DISC3.Germa...
The.Pacific.2010.DISC4.Germa...
The.Pacific.2010.DISC5.Germa...

 
 
The.Patrol.2013.German.DL.1080p.BluRay.x264-FRACTAL

Jahr: 2013
Genre: Drama, Krieg
Sprache: Deutsch DTS | Englisch DTS
Laufzeit: 1h 19mn
Bitrate: 8 019 Kbps
Format: MKV
Größe: 4.44 GiB
Release:

Beschreibung:

Afghanistan im Jahr 2006. Im Rahmen einer Offensive westlicher Streitkräfte wider die meistenteils unsichtbaren und dennoch stets gespenstisch präsenten Taliban soll eine Patrouille der britischen Streitkräfte den in der Unruheprovinz Helmand in vorderster Linie operierenden SAS-Einheiten den Rücken freihalten. Schon früh geraten die Männer unter massiven Beschuss und beklagen wiederholt Verluste, ohne je selbst effektiv zurückschlagen zu können. Bald bricht sich in der Einheit der aufgestaute Frust intern gewaltsam Bahn.



Complete name                            : fractal-thepatrol-1080p.mkv
Format                                   : Matroska
Format version                           : Version 2
File size                                : 4.44 GiB
Duration                                 : 1h 19mn
Overall bit rate                         : 8 019 Kbps
Writing application                      : mkvmerge v4.1.1 ('Bouncin' Back') built on Jul  3 2010 22:54:08
Writing library                          : libebml v1.0.0 + libmatroska v1.0

Video
ID                                       : 1
Format                                   : AVC
Format/Info                              : Advanced Video Codec
Format profile                           : High@L4.1
Format settings, CABAC                   : Yes
Format settings, ReFrames                : 4 frames
Codec ID                                 : V_MPEG4/ISO/AVC
Duration                                 : 1h 19mn
Bit rate                                 : 4 841 Kbps
Width                                    : 1 920 pixels
Height                                   : 1 080 pixels
Display aspect ratio                     : 16:9
Frame rate mode                          : Constant
Frame rate                               : 25.000 fps
Color space                              : YUV
Chroma subsampling                       : 4:2:0
Bit depth                                : 8 bits
Scan type                                : Progressive
Bits/(Pixel*Frame)                       : 0.093
Stream size                              : 2.68 GiB (60%)
Writing library                          : x264 core 142 r2431 ac76440
Encoding settings                        : cabac=1 / ref=4 / deblock=1:-1:-1 / analyse=0x3:0x133 / me=umh / subme=7 / psy=1 / psy_rd=1.00:0.15 / mixed_ref=1 / me_range=16 / chroma_me=1 / trellis=1 / 8x8dct=1 / cqm=0 / deadzone=21,11 / fast_pskip=0 / chroma_qp_offset=-3 / threads=12 / lookahead_threads=2 / sliced_threads=0 / nr=0 / decimate=1 / interlaced=0 / bluray_compat=0 / constrained_intra=0 / bframes=3 / b_pyramid=2 / b_adapt=1 / b_bias=0 / direct=3 / weightb=1 / open_gop=0 / weightp=2 / keyint=250 / keyint_min=25 / scenecut=40 / intra_refresh=0 / rc_lookahead=40 / rc=crf / mbtree=1 / crf=20.0 / qcomp=0.60 / qpmin=10 / qpmax=69 / qpstep=4 / ip_ratio=1.40 / aq=1:1.00
Language                                 : English
Default                                  : Yes
Forced                                   : No

Audio #1
ID                                       : 2
Format                                   : DTS
Format/Info                              : Digital Theater Systems
Mode                                     : 16
Format settings, Endianness              : Big
Codec ID                                 : A_DTS
Duration                                 : 1h 19mn
Bit rate mode                            : Constant
Bit rate                                 : 1 509 Kbps
Channel(s)                               : 6 channels
Channel positions                        : Front: L C R, Side: L R, LFE
Sampling rate                            : 48.0 KHz
Bit depth                                : 24 bits
Compression mode                         : Lossy
Stream size                              : 855 MiB (19%)
Language                                 : German
Default                                  : Yes
Forced                                   : No

Audio #2
ID                                       : 3
Format                                   : DTS
Format/Info                              : Digital Theater Systems
Mode                                     : 16
Format settings, Endianness              : Big
Codec ID                                 : A_DTS
Duration                                 : 1h 19mn
Bit rate mode                            : Constant
Bit rate                                 : 1 509 Kbps
Channel(s)                               : 6 channels
Channel positions                        : Front: L C R, Side: L R, LFE
Sampling rate                            : 48.0 KHz
Bit depth                                : 24 bits
Compression mode                         : Lossy
Stream size                              : 855 MiB (19%)
Language                                 : English
Default                                  : Yes
Forced                                   : No



Download:
Share Online Share OnlineShare OnlineShare Online
 

Kommentare