Filecrypt zeigt vereinzelt Files als "n/a". Die Downloads sind trotzdem komplett.

DNS SERVER AENDERNum der staatlichen Zensur zu umgehen. Sollten wir von eurem Provider geseprrt werden, nutzt den TOR BROWSER oder ändert euren DNS SERVER.

Filmwünsche können bei uns im Forum abgegeben werden

Wir Speichern Nicht




 
 
 
Top Releases
The.Equalizer.2.2018.German....
Jim.Knopf.und.Lukas.der.Loko...
Jim.Knopf.und.Lukas.der.Loko...
Die.Unglaublichen.2.German.D...
Shirkers.2018.German.DL.Doku...
Shirkers.2018.German.DL.Doku...
The.Equalizer.2.German.DL.AC...
The.Equalizer.2.German.DL.AC...
In.den.Gaengen.German.1080p....
Gun.City.2018.German.720p.WE...

Cinedubs
The.Guilty.2018.German.AC3MD...
The.Guilty.2018.German.AC3MD...
Der.Affront.2017.GERMAN.AC3....
Der.Affront.2017.GERMAN.AC3....
Meg.German.DL.AC3.Dubbed.108...
Meg.German.DL.AC3.Dubbed.720...
The.Nun.German.DL.AC3.Dubbed...
The.Nun.German.DL.AC3.Dubbed...
Christopher.Robin.2018.GERMA...
Christopher.Robin.2018.GERMA...

Neuerscheinungen 2017-18
Bo.und.der.Weihnachtsstern.2...
211.Cops.under.Fire.2018.Ger...
Das.Phantom.Kommando.DC.1985...
Das.Phantom.Kommando.DC.1985...
Das.Phantom.Kommando.DC.1985...
Bo.und.der.Weihnachtsstern.2...
Bo.und.der.Weihnachtsstern.2...
The Fog 1980.MULTi.COMPLETE....
The.Matrix.Revolutions.2003....
The.Darkest.Minds.2018.COMPL...

XXX
MilfHunter.18.10.15.Rachel.S...
MetArtX.18.10.16.Tracy.Linds...
MyFriendsHotMom.18.10.18.Che...
MomsLickTeens.18.10.17.Diamo...
MomDrips.18.10.17.Gia.Vendet...
MeanMassage.18.10.05.Crystal...
NaughtyOffice.18.10.17.Jasmi...
MetArt.18.10.16.Kaleesy.Ligh...
MommysGirl.18.10.13.Lena.Pau...
Nerd.Pervert.Vol.28.XXX.720p...
MatureNL.18.10.12.Alexa.Blun...
NaughtyOffice.18.10.14.Ryan....
NetVideoGirls.18.10.09.Xandr...
MyFriendsHotMom.18.10.15.Mer...
Nerd.Pervert.Vol.28.XXX.1080...
MofosBSides.18.10.13.Haven.R...
Mommies.Got.Boobs.XXX.1080p....
MilfBody.18.10.14.Brandi.Lov...
NewSensations.18.10.13.Kenna...
MyLifeInMiami.18.10.09.Me.An...

3D
Sharknado.6.The.Last.One.3D....
Deep.Kleine.Helden.der.Tiefs...
Deep.3D.2017.MULTI.COMPLETE....
Detective.Dee.und.die.Legend...
Detective.Dee.und.die.Legend...
Skyscraper.3D.German.DL.AC3....
Ant-Man.and.the.Wasp.2018.3D...
Jurassic.World.Das.gefallene...
Jurassic.World.Das.gefallene...
Best.of.3D.vol.10.-.12.GERMA...
Die.Biene.Maja.2.Die.Honigsp...
Sharknado.6.The.Last.One.3D....
Solo.A.Star.Wars.Story.3D.20...
Solo.A.Star.Wars.Story.3D.20...
Die.Biene.Maja.2.Die.Honigsp...

Old_Stuff
Species.IV.Das.Erwachen.2007...
Species.IV.Das.Erwachen.2007...
Hotel.Transsilvanien.2012.Ge...
The.Dead.2010.German.DL.1080...
The.Dead.2.India.2013.German...
Britney.Spears.Live.The.Femm...
Buffy.The.Vampire.Slayer.199...
IMAX.Ride.Around.The.World.2...
Schimanski.-.Duisburg.Ruhror...
Akte.X.S02.German.DTS.DL.108...
How.I.Met.Your.Mother.S02.Ge...
Akte.X.S01.German.DTS.DL.108...
Den.Himmel.gibts.echt.DL.108...
Vikings.S02.German.DL.1080p....
Be.Kind.Rewind.Abgedreht.200...

Filme
Im.Zweifel.fuer.die.Liebe.20...
The.Philly.Kid.Never.Back.Do...
The.Pirates.of.Langkasuka.Ge...
The.Poet.Zwischen.den.Fronte...
The.Poker.House.2008.German....
Final.Destination.3.2006.Ger...
Der.Auftragslover.aka.LArnac...
Wenn.die.Gondeln.Trauer.trag...
House.Of.Cards.2013.S06.GERM...
Krypton.S01.GERMAN.DUBBED.72...
Once.Upon.a.Time.S07.German....
Once.Upon.a.Time.S07.German....
4.Blocks.S02.GERMAN.1080p.HD...
4.Blocks.S02.GERMAN.720p.HDT...
Sie.Leben.1988.German.DL.216...
The.Fog.Nebel.des.Grauens.19...
Modern.Family.S09.GERMAN.DUB...
Modern.Family.S09.GERMAN.DUB...
The.Paperboy.2012.German.DL....
The.Patrol.2013.German.DL.10...
Die.68er.-.Wir.waren.die.Zuk...
Schuften.bis.zum.Umfallen.DH...
Der.zweite.Weltkrieg.Krieg.d...
The.Painter.Dein.Blut.ist.se...

 
 
The.Poet.Zwischen.den.Fronten.2007.German.DL.1080p.BluRay.x264-ENCOUNTERS

Jahr: 2007
Genre: Drama, Krieg
Sprache: Deutsch AC3 | Englisch AC3
Laufzeit: 1h 32mn
Bitrate: 11.4 Mbps
Format: MKV
Größe: 7.36 GiB
Release:

Beschreibung:

Als Deutschland zu Beginn des Zweiten Weltkriegs Polen überfällt, marschiert auch der aus großbürgerlichem Hause stammende Dichter Oscar Koenig überzeugt vorne mit und leistet wertvolle Dienste bei der Spionageaufklärung hinter feindlichen Partisanenlinien. Privat aber hat Oscar nichts gegen Juden und verliebt sich prompt geradewegs in Rachel, die schöne Tochter vom Rabbi aus dem Stedtl, das er und seine Kameraden demnächst dem Erdboden gleichmachen. Verzweifelt versucht Oscar, seiner Geliebten dasselbe Schicksal zu ersparen.



Complete name                            : encounters-thpozwdefr_1080p.mkv
Format                                   : Matroska
Format version                           : Version 2
File size                                : 7.36 GiB
Duration                                 : 1h 32mn
Overall bit rate                         : 11.4 Mbps
Encoded date                             : UTC 2010-07-15 11:28:25
Writing application                      : mkvmerge v3.3.0 ('Language') built on Mar 24 2010 14:59:24
Writing library                          : libebml v0.8.0 + libmatroska v0.9.0

Video
ID                                       : 1
Format                                   : AVC
Format/Info                              : Advanced Video Codec
Format profile                           : High@L4.1
Format settings, CABAC                   : Yes
Format settings, ReFrames                : 4 frames
Codec ID                                 : V_MPEG4/ISO/AVC
Duration                                 : 1h 32mn
Bit rate                                 : 10.3 Mbps
Width                                    : 1 920 pixels
Height                                   : 1 080 pixels
Display aspect ratio                     : 16:9
Frame rate mode                          : Constant
Frame rate                               : 25.000 fps
Color space                              : YUV
Chroma subsampling                       : 4:2:0
Bit depth                                : 8 bits
Scan type                                : Progressive
Bits/(Pixel*Frame)                       : 0.198
Stream size                              : 6.63 GiB (90%)
Writing library                          : x264 core 104 r1673 c9b2fcb
Encoding settings                        : cabac=1 / ref=5 / deblock=1:0:0 / analyse=0x3:0x133 / me=umh / subme=7 / psy=1 / psy_rd=1.00:0.00 / mixed_ref=1 / me_range=16 / chroma_me=1 / trellis=1 / 8x8dct=1 / cqm=0 / deadzone=21,11 / fast_pskip=0 / chroma_qp_offset=-2 / threads=6 / sliced_threads=0 / nr=0 / decimate=1 / interlaced=0 / constrained_intra=0 / bframes=3 / b_pyramid=1 / b_adapt=1 / b_bias=0 / direct=1 / weightb=1 / open_gop=0 / weightp=2 / keyint=250 / keyint_min=25 / scenecut=40 / intra_refresh=0 / rc_lookahead=40 / rc=crf / mbtree=1 / crf=20.0 / qcomp=0.60 / qpmin=10 / qpmax=51 / qpstep=4 / ip_ratio=1.40 / aq=1:1.00
Default                                  : Yes
Forced                                   : No

Audio #1
ID                                       : 2
Format                                   : AC-3
Format/Info                              : Audio Coding 3
Mode extension                           : CM (complete main)
Format settings, Endianness              : Big
Codec ID                                 : A_AC3
Duration                                 : 1h 32mn
Bit rate mode                            : Constant
Bit rate                                 : 448 Kbps
Channel(s)                               : 6 channels
Channel positions                        : Front: L C R, Side: L R, LFE
Sampling rate                            : 48.0 KHz
Bit depth                                : 16 bits
Compression mode                         : Lossy
Stream size                              : 296 MiB (4%)
Language                                 : German
Default                                  : Yes
Forced                                   : No

Audio #2
ID                                       : 3
Format                                   : AC-3
Format/Info                              : Audio Coding 3
Mode extension                           : CM (complete main)
Format settings, Endianness              : Big
Codec ID                                 : A_AC3
Duration                                 : 1h 32mn
Bit rate mode                            : Constant
Bit rate                                 : 448 Kbps
Channel(s)                               : 6 channels
Channel positions                        : Front: L C R, Side: L R, LFE
Sampling rate                            : 48.0 KHz
Bit depth                                : 16 bits
Compression mode                         : Lossy
Stream size                              : 296 MiB (4%)
Language                                 : English
Default                                  : No
Forced                                   : No


Download:
Share Online Share OnlineShare OnlineShare Online
 

Kommentare