Filecrypt zeigt vereinzelt Files als "n/a". Die Downloads sind trotzdem komplett.

DNS SERVER AENDERNum der staatlichen Zensur zu umgehen. Sollten wir von eurem Provider geseprrt werden, nutzt den TOR BROWSER oder ändert euren DNS SERVER.

Filmwünsche können bei uns im Forum abgegeben werden

Wir Speichern Nicht




 
 
 
Top Releases
Oceans.8.2018.DUAL.COMPLETE....
Oceans.8.2018.German.DL.1080...
Meg.German.DL.AC3.Dubbed.720...
Meg.German.DL.AC3.Dubbed.108...
Film.Stars.Dont.Die.in.Liver...
Film.Stars.Dont.Die.in.Liver...
In.den.Gaengen.2018.German.1...
Die.Unglaublichen.2.German.D...
Prinz.Charming.2018.German.A...
Die.Unglaublichen.2.German.D...

Cinedubs
Mission.Impossible.Fallout.2...
Mission.Impossible.Fallout.2...
BlacKkKlansman.2018.German.A...
BlacKkKlansman.2018.German.A...
Mandy.2018.German.AC3MD.DL.7...
Mandy.2018.German.AC3MD.DL.1...
The.Guilty.2018.German.AC3MD...
The.Guilty.2018.German.AC3MD...
Der.Affront.2017.GERMAN.AC3....
Der.Affront.2017.GERMAN.AC3....

Neuerscheinungen 2017-18
Mercy.Christmas.2017.COMPLET...
Papst.Franziskus.Pope.Franci...
Herrliche.Zeiten.2018.GERMAN...
Oceans.8.German.DL.1080p.Blu...
Oceans.8.German.DL.720p.BluR...
Papst.Franziskus.Ein.Mann.se...
Herrliche.Zeiten.German.720p...
Herrliche.Zeiten.German.1080...
Zeugin.der.Anklage.Witness.f...
Verborgenes.Indien.Land.des....

XXX
SweetSinner.The.Babysitter.1...
ThirdMovies.Cum.Swapping.Ste...
Teenikini.E62.Kendra.Spade.A...
TabooPOV.18.10.12.Sara.St.Cl...
WildOnCam.18.10.15.Addison.L...
TeensDoPorn.18.10.15.Madison...
TheLifeErotic.18.10.16.Sofia...
Swallowed.18.10.13.Valentina...
Spizoo.18.10.17.Karma.RX.And...
WoodmanCastingX.18.06.24.Lil...
Swallowed.18.10.18.Khloe.Kap...
Submissived.18.10.15.Rharri....
TabooPOV.18.10.09.Alex.More....
TeensLoveToSwallow.Shae.XXX....
Yanks.18.10.13.Katrina.P.Fin...
WetAndPuffy.18.10.17.Antonia...
Yanks.18.10.15.Shay.Big.Cum....
Spizoo.18.10.15.Sarah.Jessie...
TheLifeErotic.18.10.14.Elza....
X-Art.18.10.16.Kendall.Rae.A...

3D
Die.Unglaublichen.2.3D.2018....
Die.Unglaublichen.2.2018.3D....
Die.Unglaublichen.2.2018.3D....
Sharknado.6.The.Last.One.3D....
Deep.Kleine.Helden.der.Tiefs...
Deep.3D.2017.MULTI.COMPLETE....
Detective.Dee.und.die.Legend...
Detective.Dee.und.die.Legend...
Skyscraper.3D.German.DL.AC3....
Ant-Man.and.the.Wasp.2018.3D...
Jurassic.World.Das.gefallene...
Jurassic.World.Das.gefallene...
Best.of.3D.vol.10.-.12.GERMA...
Die.Biene.Maja.2.Die.Honigsp...
Sharknado.6.The.Last.One.3D....

Old_Stuff
Species.IV.Das.Erwachen.2007...
Species.IV.Das.Erwachen.2007...
Hotel.Transsilvanien.2012.Ge...
The.Dead.2010.German.DL.1080...
The.Dead.2.India.2013.German...
Britney.Spears.Live.The.Femm...
Buffy.The.Vampire.Slayer.199...
IMAX.Ride.Around.The.World.2...
Schimanski.-.Duisburg.Ruhror...
Akte.X.S02.German.DTS.DL.108...
How.I.Met.Your.Mother.S02.Ge...
Akte.X.S01.German.DTS.DL.108...
Den.Himmel.gibts.echt.DL.108...
Vikings.S02.German.DL.1080p....
Be.Kind.Rewind.Abgedreht.200...

Filme
Aus.dem.Dschungel.in.den.Dsc...
Oceans.8.2018.German.Dubbed....
Oceans.8.2018.German.Dubbed....
The.Sound.of.War.Wenn.Helden...
The.Special.Relationship.201...
Dredd.2012.German.DL.1080p.B...
Harold.und.Kumar.Alle.Jahre....
The.Splatter.Show.2009.Germa...
The.Son.of.No.One.2010.Germa...
The.Sleeper.UNRATED.GERMAN.2...
The.Skeptic.Das.teuflische.H...
The.Supercapitalist.2012.Ger...
Splice.Das.Genexperiment.Ger...
The.Suspect.Traue.keinem.201...
The.Sword.and.the.Sorcerer.2...
Body.Heat.1981.MULTi.COMPLET...
The.Sword.Identity.2011.Germ...
Gate.Die.Unterirdischen.GERM...
Gate.Die.Unterirdischen.GERM...
Quatsch.und.die.NasenbaerBan...
Rufmord.-.Jenseits.der.Moral...
Pfad.des.Kriegers.2018.Germa...
The.Other.Woman.German.DL.10...
Twisted.-.Der.erste.Verdacht...

 
 
The.Sound.of.War.Wenn.Helden.Sterben.1998.German.DL.1080p.HDTV.x264-muhHD

Jahr: 1998
Genre: Drama, Krieg
Sprache: Deutsch AC3 | Englisch AC3
Laufzeit: 1h 28mn
Bitrate: 6 033 Kbps
Format: MKV
Größe: 3.73 GiB
Release:

Beschreibung:

November 1944: Im Wald von Hurtgen, nahe der belgisch-deutschen Grenze, tobt der Krieg zwischen den Alliierten und der deutschen Armee. Von einem Einsatz an der Front kommt nur Soldat David Manning (Ron Eldard ) zurück. Die letzten Tage haben den Soldaten so geprägt, daß er nie mehr an die Front und nur noch nach Hause will. Doch Captain Pritchett (Martin Donovan) befördert den einfachen Soldaten zum Sergeant. Zusammen mit den neu angekommenen Rekruten soll er wieder zurück an die Front…



Complete name                            : muhhd-wennheldensterben-1080p.mkv
Format                                   : Matroska
Format version                           : Version 2
File size                                : 3.73 GiB
Duration                                 : 1h 28mn
Overall bit rate                         : 6 033 Kbps
Movie name                               : The.Sound.of.War.Wenn.Helden.Sterben.1998.German.DL.1080p.HDTV.x264-muhHD
Encoded date                             : UTC 2016-06-23 16:26:10
Writing application                      : mkvmerge v5.6.0 ('Kenya Kane') built on May 28 2012 06:47:39
Writing library                          : libebml v1.2.2 + libmatroska v1.3.0

Video
ID                                       : 1
Format                                   : AVC
Format/Info                              : Advanced Video Codec
Format profile                           : High@L4.1
Format settings, CABAC                   : Yes
Format settings, ReFrames                : 4 frames
Codec ID                                 : V_MPEG4/ISO/AVC
Duration                                 : 1h 28mn
Bit rate                                 : 5 337 Kbps
Width                                    : 1 920 pixels
Height                                   : 1 080 pixels
Display aspect ratio                     : 16:9
Frame rate mode                          : Constant
Frame rate                               : 25.000 fps
Color space                              : YUV
Chroma subsampling                       : 4:2:0
Bit depth                                : 8 bits
Scan type                                : Progressive
Bits/(Pixel*Frame)                       : 0.103
Stream size                              : 3.30 GiB (88%)
Title                                    : muhhd-wennheldensterben-1080p
Writing library                          : x264 core 148 r2694 3b70645
Encoding settings                        : cabac=1 / ref=4 / deblock=1:-3:-3 / analyse=0x3:0x113 / me=umh / subme=7 / psy=1 / psy_rd=1.00:0.00 / mixed_ref=1 / me_range=16 / chroma_me=1 / trellis=1 / 8x8dct=1 / cqm=0 / deadzone=21,11 / fast_pskip=0 / chroma_qp_offset=-2 / threads=12 / lookahead_threads=2 / sliced_threads=0 / nr=0 / decimate=1 / interlaced=0 / bluray_compat=0 / constrained_intra=0 / bframes=3 / b_pyramid=2 / b_adapt=1 / b_bias=0 / direct=1 / weightb=1 / open_gop=0 / weightp=2 / keyint=250 / keyint_min=25 / scenecut=40 / intra_refresh=0 / rc_lookahead=40 / rc=crf / mbtree=1 / crf=19.0 / qcomp=0.60 / qpmin=0 / qpmax=69 / qpstep=4 / ip_ratio=1.40 / aq=1:1.00
Language                                 : German
Default                                  : Yes
Forced                                   : Yes
Color primaries                          : BT.709
Transfer characteristics                 : BT.709
Matrix coefficients                      : BT.709

Audio #1
ID                                       : 2
Format                                   : AC-3
Format/Info                              : Audio Coding 3
Mode extension                           : CM (complete main)
Format settings, Endianness              : Big
Codec ID                                 : A_AC3
Duration                                 : 1h 28mn
Bit rate mode                            : Constant
Bit rate                                 : 384 Kbps
Channel(s)                               : 2 channels
Channel positions                        : Front: L R
Sampling rate                            : 48.0 KHz
Bit depth                                : 16 bits
Compression mode                         : Lossy
Stream size                              : 243 MiB (6%)
Language                                 : German
Default                                  : Yes
Forced                                   : Yes

Audio #2
ID                                       : 3
Format                                   : AC-3
Format/Info                              : Audio Coding 3
Mode extension                           : CM (complete main)
Format settings, Endianness              : Big
Codec ID                                 : A_AC3
Duration                                 : 1h 28mn
Bit rate mode                            : Constant
Bit rate                                 : 192 Kbps
Channel(s)                               : 2 channels
Channel positions                        : Front: L R
Sampling rate                            : 48.0 KHz
Bit depth                                : 16 bits
Compression mode                         : Lossy
Stream size                              : 121 MiB (3%)
Language                                 : English
Default                                  : No
Forced                                   : No


Download:
Share Online Share OnlineShare OnlineShare Online
 

Kommentare