Teachers | Documentary | Animal Crackers [2018] HC HDRip - xvid - AC3 - EVO - 1GB全能視訊播放器 - XPlayer | Voter ID Online Free Services | Web Servers
 


 

Filecrypt zeigt vereinzelt Files als "n/a". Die Downloads sind trotzdem komplett.

DNS SERVER AENDERNum der staatlichen Zensur zu umgehen. Sollten wir von eurem Provider geseprrt werden, nutzt den TOR BROWSER oder ändert euren DNS SERVER.

Filmwünsche können bei uns im Forum abgegeben werden

Wir Speichern Nicht




 
 
 
Top Releases
Star.Wars.Episode.VIII.Die.l...
Skyscraper.2018.German.720p....
Skyscraper.2018.German.DL.10...
Zoe.2018.German.DL.1080p.Blu...
Zoe.2018.GERMAN.720p.BluRay....
Zoe.2018.MULTi.COMPLETE.BLUR...
Oceans.8.2018.DUAL.COMPLETE....
Oceans.8.2018.German.DL.1080...
Meg.German.DL.AC3.Dubbed.720...
Meg.German.DL.AC3.Dubbed.108...

Cinedubs
Sicario.2.German.DL.AC3.Dubb...
Sicario.2.German.DL.AC3.Dubb...
Hotel.Artemis.German.DL.AC3....
Hotel.Artemis.German.DL.AC3....
Mission.Impossible.Fallout.2...
Mission.Impossible.Fallout.2...
BlacKkKlansman.2018.German.A...
BlacKkKlansman.2018.German.A...
Mandy.2018.German.AC3MD.DL.7...
Mandy.2018.German.AC3MD.DL.1...

Neuerscheinungen 2017-18
Mission.Yeti.Die.Abenteuer.v...
Mission.Yeti.Die.Abenteuer.v...
S.W.A.T.Unter.Verdacht.2017....
Terminal.Rache.war.nie.schoe...
Terminal.Rache.war.nie.schoe...
In.Darkness.2018.German.AC3D...
In.Darkness.2018.German.AC3D...
Papst.Franziskus.Ein.Mann.se...
Das.Leben.Ein.Sechserpack.19...
Skyscraper.2018.MULTi.COMPLE...

XXX
AuntJudys.18.10.29.Luba.Gets...
ATKGirlfriends.18.10.28.Emil...
AbbyWinters.18.10.31.Danai.A...
AdultAuditions.E260.Gina.Pre...
BarbaraBieberOfficial.18.08....
BarbaraBieberOfficial.18.08....
Analized.18.10.29.Jessica.Re...
BarbaraBieberOfficial.18.08....
ArchAngel.18.10.31.Carmen.Va...
1000Facials.18.10.29.Britt.J...
AllOver30.18.10.30.Diana.V.M...
AnalTeenAngels.18.10.30.Bell...
Anilos.18.10.30.CJ.Bridge.Li...
AllGirlMassage.18.10.29.Silv...
Babes.18.10.29.Ember.Snow.Su...
AbbyWinters.18.10.30.Olga.V....
AssTraffic.18.10.31.Vyvan.Hi...
ALSScan.18.10.31.Sabina.Roug...
ATKHairy.18.10.28.Alexandra....
BarbaraBieberOfficial.18.08....

3D
Die.Unglaublichen.2.3D.2018....
Die.Unglaublichen.2.2018.3D....
Die.Unglaublichen.2.2018.3D....
Sharknado.6.The.Last.One.3D....
Deep.Kleine.Helden.der.Tiefs...
Deep.3D.2017.MULTI.COMPLETE....
Detective.Dee.und.die.Legend...
Detective.Dee.und.die.Legend...
Skyscraper.3D.German.DL.AC3....
Ant-Man.and.the.Wasp.2018.3D...
Jurassic.World.Das.gefallene...
Jurassic.World.Das.gefallene...
Best.of.3D.vol.10.-.12.GERMA...
Die.Biene.Maja.2.Die.Honigsp...
Sharknado.6.The.Last.One.3D....

Old_Stuff
Species.IV.Das.Erwachen.2007...
Species.IV.Das.Erwachen.2007...
Hotel.Transsilvanien.2012.Ge...
The.Dead.2010.German.DL.1080...
The.Dead.2.India.2013.German...
Britney.Spears.Live.The.Femm...
Buffy.The.Vampire.Slayer.199...
IMAX.Ride.Around.The.World.2...
Schimanski.-.Duisburg.Ruhror...
Akte.X.S02.German.DTS.DL.108...
How.I.Met.Your.Mother.S02.Ge...
Akte.X.S01.German.DTS.DL.108...
Den.Himmel.gibts.echt.DL.108...
Vikings.S02.German.DL.1080p....
Be.Kind.Rewind.Abgedreht.200...

Filme
Undercover.In.Too.Deep.1999....
Moulin.Rouge.1952.German.AC3...
S.W.A.T.Unter.Verdacht.2017....
Star.Wars.Episode.V.Das.Impe...
Das.Leben.Ein.Sechserpack.19...
Constantine.City.of.Demons.2...
Gesetz.der.Rache.German.2009...
Gesetz.der.Rache.German.2009...
The.Good.Doctor.S02.German.D...
The.Good.Doctor.S02.German.D...
Die.Simpsons.S29.GERMAN.DUBB...
Riverdale.US.S03.GERMAN.DL.1...
Riverdale.US.S03.GERMAN.DL.7...
The.Walking.Dead.S08.German....
The.Walking.Dead.S08.German....
Young.Sheldon.S01.GERMAN.DUB...
Young.Sheldon.S01.GERMAN.DUB...
The.Last.Ship.S05.GERMAN.DUB...
The.Last.Ship.S05.GERMAN.DUB...
Hobo.with.a.Shotgun.2011.Ger...
Heiter.bis.wolkig.German.108...
The.Square.Ein.toedlicher.Pl...
The.Stendhal.Syndrome.German...
The.Straight.Story.1999.Germ...

 
 
Undercover.In.Too.Deep.1999.German.AC3D.DL.1080p.US-BluRay.x265-FuN

Jahr: 1999
Genre: Krimi, Thriller
Sprache: Deutsch AC3 | Englisch AC3
Laufzeit: 1h 37mn
Bitrate: 2 494 Kbps
Format: MKV
Größe: 1.69 GiB
Release:

Beschreibung:

Detektiv Jeff Cole (Omar Epps) hat einen lebensgefährlichen Auftrag: Er will `God` (LL Cool J), den gefährlichsten Gangster der Stadt, hinter Gitter bringen. `God` beherrscht 80 Prozent des Crackhandels von Cincinatti, und bislang ist es noch keinem Polizisten gelungen, ihm nahezukommen. Als Drogendealer getarnt, schafft Jeff das Unglaubliche: Er erringt das Vertrauen von `God` und dring in den inneren Zirkel seines Drogensyndikats vor. Doch schon bald gerät er mit seiner neuen Identität in Konflikt. Schritt für Schritt nähert er sich dem Mann, den er verfolgt - und entfernt sich von dem Mann, der er selbst einmal war...




Format                                   : Matroska
Format version                           : Version 4 / Version 2
File size                                : 1.69 GiB
Duration                                 : 1h 37mn
Overall bit rate                         : 2 494 Kbps
Movie name                               : In.Too.Deep.1999.1080p.BluRay.REMUX.AVC.DTS-HD.MA.5.1-EPSiLON
Encoded date                             : UTC 2018-10-28 05:00:39
Writing application                      : mkvmerge v20.0.0 ('I Am The Sun') 64-bit
Writing library                          : libebml v1.3.5 + libmatroska v1.4.8
DURATION                                 : 01:33:46.655000000
NUMBER_OF_FRAMES                         : 1312
NUMBER_OF_BYTES                          : 58123
_STATISTICS_WRITING_APP                  : mkvmerge v20.0.0 ('I Am The Sun') 64-bit
_STATISTICS_WRITING_DATE_UTC             : 2018-10-28 05:00:39
_STATISTICS_TAGS                         : BPS DURATION NUMBER_OF_FRAMES NUMBER_OF_BYTES

Video
ID                                       : 1
Format                                   : HEVC
Format/Info                              : High Efficiency Video Coding
Format profile                           : Main@L4.0
Codec ID                                 : V_MPEGH/ISO/HEVC
Duration                                 : 1h 37mn
Bit rate                                 : 1 676 Kbps
Width                                    : 1 914 pixels
Height                                   : 832 pixels
Display aspect ratio                     : 2.35:1
Frame rate mode                          : Constant
Frame rate                               : 23.976 fps
Color space                              : YUV
Chroma subsampling                       : 4:2:0
Bit depth                                : 8 bits
Bits/(Pixel*Frame)                       : 0.044
Stream size                              : 1.14 GiB (67%)
Writing library                          : x265 2.6:[Windows][GCC 7.3.0][64 bit] 8bit+10bit+12bit
Encoding settings                        : cpuid=1173503 / frame-threads=3 / numa-pools=8 / wpp / no-pmode / no-pme / no-psnr / no-ssim / log-level=2 / input-csp=1 / input-res=1914x832 / interlace=0 / total-frames=0 / level-idc=0 / high-tier=1 / uhd-bd=0 / ref=3 / no-allow-non-conformance / no-repeat-headers / annexb / no-aud / no-hrd / info / hash=0 / no-temporal-layers / open-gop / min-keyint=24 / keyint=240 / bframes=4 / b-adapt=0 / b-pyramid / bframe-bias=0 / rc-lookahead=15 / lookahead-slices=5 / scenecut=40 / no-intra-refresh / ctu=64 / min-cu-size=8 / no-rect / no-amp / max-tu-size=32 / tu-inter-depth=1 / tu-intra-depth=1 / limit-tu=0 / rdoq-level=0 / dynamic-rd=0.00 / no-ssim-rd / signhide / no-tskip / nr-intra=0 / nr-inter=0 / no-constrained-intra / no-strong-intra-smoothing / max-merge=2 / limit-refs=3 / no-limit-modes / me=1 / subme=2 / merange=57 / temporal-mvp / weightp / no-weightb / no-analyze-src-pics / deblock=0:0 / no-sao / no-sao-non-deblock / rd=2 / no-early-skip / rskip / fast-intra / no-tskip-fast / no-cu-lossless / no-b-intra / no-splitrd-skip / rdpenalty=0 / psy-rd=2.00 / psy-rdoq=0.00 / no-rd-refine / analysis-reuse-mode=0 / no-lossless / cbqpoffs=0 / crqpoffs=0 / rc=crf / crf=21.0 / qcomp=0.60 / qpstep=4 / stats-write=0 / stats-read=0 / ipratio=1.40 / pbratio=1.30 / aq-mode=1 / aq-strength=1.00 / cutree / zone-count=0 / no-strict-cbr / qg-size=32 / no-rc-grain / qpmax=69 / qpmin=0 / no-const-vbv / sar=1 / overscan=0 / videoformat=5 / range=0 / colorprim=1 / transfer=1 / colormatrix=1 / chromaloc=0 / display-window=0 / max-cll=0,0 / min-luma=0 / max-luma=255 / log2-max-poc-lsb=8 / vui-timing-info / vui-hrd-info / slices=1 / no-opt-qp-pps / no-opt-ref-list-length-pps / no-multi-pass-opt-rps / scenecut-bias=0.05 / no-opt-cu-delta-qp / no-aq-motion / no-hdr / no-hdr-opt / no-dhdr10-opt / analysis-reuse-level=5 / scale-factor=0 / refine-intra=0 / refine-inter=0 / refine-mv=0 / no-limit-sao / ctu-info=0 / no-lowpass-dct / refine-mv-type=0 / copy-pic=1
Default                                  : Yes
Forced                                   : No
DURATION                                 : 01:37:05.820000000
NUMBER_OF_FRAMES                         : 139680
NUMBER_OF_BYTES                          : 1255436725
_STATISTICS_WRITING_APP                  : mkvmerge v20.0.0 ('I Am The Sun') 64-bit
_STATISTICS_WRITING_DATE_UTC             : 2018-10-28 05:00:39
_STATISTICS_TAGS                         : BPS DURATION NUMBER_OF_FRAMES NUMBER_OF_BYTES

Audio #1
ID                                       : 2
Format                                   : AC-3
Format/Info                              : Audio Coding 3
Mode extension                           : CM (complete main)
Format settings, Endianness              : Big
Codec ID                                 : A_AC3
Duration                                 : 1h 37mn
Bit rate mode                            : Constant
Bit rate                                 : 384 Kbps
Channel(s)                               : 2 channels
Channel positions                        : Front: L R
Sampling rate                            : 48.0 KHz
Bit depth                                : 16 bits
Compression mode                         : Lossy
Delay relative to video                  : 123ms
Stream size                              : 267 MiB (15%)
Title                                    : Stereo (THX@LameHD)
Language                                 : German
Default                                  : Yes
Forced                                   : No
DURATION                                 : 01:37:05.824000000
NUMBER_OF_FRAMES                         : 182057
NUMBER_OF_BYTES                          : 279639552
_STATISTICS_WRITING_APP                  : mkvmerge v20.0.0 ('I Am The Sun') 64-bit
_STATISTICS_WRITING_DATE_UTC             : 2018-10-28 05:00:39
_STATISTICS_TAGS                         : BPS DURATION NUMBER_OF_FRAMES NUMBER_OF_BYTES

Audio #2
ID                                       : 3
Format                                   : AC-3
Format/Info                              : Audio Coding 3
Mode extension                           : CM (complete main)
Format settings, Endianness              : Big
Codec ID                                 : A_AC3
Duration                                 : 1h 37mn
Bit rate mode                            : Constant
Bit rate                                 : 384 Kbps
Channel(s)                               : 6 channels
Channel positions                        : Front: L C R, Side: L R, LFE
Sampling rate                            : 48.0 KHz
Bit depth                                : 16 bits
Compression mode                         : Lossy
Stream size                              : 267 MiB (15%)
Title                                    : Surround
Language                                 : English
Default                                  : No
Forced                                   : No



Download:
Share Online Share OnlineShare OnlineShare Online
 

Kommentare